<?xml version="1.0" standalone="no"?>
<!DOCTYPE svg PUBLIC "-//W3C//DTD SVG 1.1//EN" "http://www.w3.org/Graphics/SVG/1.1/DTD/svg11.dtd" >
<svg xmlns="http://www.w3.org/2000/svg" xmlns:xlink="http://www.w3.org/1999/xlink" version="1.1">
<metadata>
Created by FontForge 20160407 at Thu Jun 09 11:05:24 2016
 By GArSAn
Created with the help of MyScriptFont.com
Copyright belongs to the Centegares.
</metadata>
<defs>
<font id="CENTEGARES" horiz-adv-x="8" >
  <font-face 
    font-family="CENTEGARES"
    font-weight="500"
    font-stretch="normal"
    units-per-em="1000"
    panose-1="2 0 6 3 0 0 0 0 0 0"
    ascent="800"
    descent="-200"
    x-height="566"
    cap-height="753"
    bbox="-32.4543 -145.287 850.068 1051.44"
    underline-thickness="49.8047"
    underline-position="-99.6094"
    stemh="93"
    stemv="75"
    unicode-range="U+0020-20AC"
  />
<missing-glyph horiz-adv-x="500" 
d="M50 0v533h400v-533h-400zM100 50h300v433h-300v-433z" />
    <glyph glyph-name=".notdef" horiz-adv-x="500" 
d="M50 0v533h400v-533h-400zM100 50h300v433h-300v-433z" />
    <glyph glyph-name="space" unicode=" " horiz-adv-x="419" 
 />
    <glyph glyph-name="exclam" unicode="!" horiz-adv-x="370" 
d="M152 771l17 29h99c74 0 96 -2 94 -8c-2 -5 -10 -10 -18 -11c-16 -3 -31 -21 -58 -70c-50 -91 -33 -56 -68 -114c-8 -15 -20 -36 -27 -48c-14 -25 -37 -98 -50 -159c-5 -21 -13 -47 -18 -57s-10 -23 -10 -28c0 -15 -11 -21 -31 -16c-13 3 -24 15 -37 44
c-26 56 -25 123 1 207c22 71 23 71 33 86c3 5 17 35 31 63c13 28 32 65 42 82zM11 186c-5 15 8 12 26 -7c9 -10 20 -18 24 -18s21 -13 38 -31c31 -31 31 -31 18 -46l-13 -14l-11 15c-10 13 -14 15 -28 7c-15 -8 -19 -8 -29 5c-6 8 -13 30 -16 48c-2 18 -7 36 -9 41z" />
    <glyph glyph-name="quotedbl" unicode="&#x22;" horiz-adv-x="333" 
d="M63 753c25 54 41 60 66 26c26 -35 22 -52 -34 -137c-21 -31 -33 -74 -37 -131c-2 -20 -6 -45 -10 -55l-8 -20l-15 15c-14 15 -15 23 -15 91c0 81 10 117 53 211zM269 756c23 29 33 29 46 -2c18 -42 16 -44 -42 -148c-10 -17 -17 -36 -17 -43s-3 -15 -7 -17
c-3 -2 -7 -13 -7 -26c0 -23 -14 -45 -26 -37c-11 7 -16 75 -8 126c8 52 33 111 61 147z" />
    <glyph glyph-name="numbersign" unicode="#" horiz-adv-x="731" 
d="M340 757c3 11 11 11 30 -4c18 -13 29 -78 17 -93c-4 -5 -15 -31 -24 -58c-9 -26 -26 -69 -38 -93c-13 -24 -23 -48 -23 -51c0 -8 103 -5 110 4c9 12 35 90 35 107c0 8 5 17 8 19c4 2 6 16 6 30c0 16 7 32 17 45l16 20l15 -18c19 -24 25 -83 15 -139
c-4 -25 -9 -51 -11 -56c-3 -9 7 -10 81 -8c99 3 120 -3 127 -38c5 -29 2 -34 -33 -34c-32 0 -155 -17 -188 -26c-15 -4 -22 -12 -25 -25c-3 -10 -3 -20 -1 -21c3 -1 181 -14 184 -16c10 -6 -31 -51 -48 -51c-8 0 -18 -3 -20 -6s-40 -10 -84 -15c-76 -8 -81 -8 -88 -26
c-7 -17 -108 -222 -129 -262c-14 -26 -33 -22 -43 10c-8 25 -6 33 18 106c15 44 29 84 34 89c15 19 30 56 24 59c-4 3 -78 1 -136 -2c-8 0 -37 -54 -37 -71c0 -5 -6 -19 -14 -31c-8 -11 -14 -28 -14 -37s-5 -25 -10 -36c-5 -10 -9 -32 -9 -50c1 -29 -9 -54 -23 -54
c-3 0 -13 13 -21 29c-20 38 -26 124 -13 193c12 64 12 68 -14 108c-11 18 -21 36 -21 39s19 6 42 6c40 0 42 1 55 22c15 24 14 34 -3 20c-8 -7 -14 -7 -28 2c-23 15 -35 46 -41 104c-5 56 4 65 37 37c15 -13 32 -18 67 -22c44 -5 48 -4 59 12c15 18 48 83 48 91
c0 3 8 16 17 28c9 13 18 29 21 39c7 25 45 63 49 92c2 13 5 27 7 32zM379 338c3 16 -2 18 -72 11c-58 -5 -65 -10 -69 -32c-2 -13 1 -13 60 -11c64 3 77 7 81 32z" />
    <glyph glyph-name="dollar" unicode="$" horiz-adv-x="563" 
d="M392 765c0 18 22 35 43 35c19 0 20 -2 18 -22l-2 -23l44 -2c23 0 47 -3 50 -6s7 -22 9 -42c5 -54 -8 -68 -66 -68h-45l-22 -66c-13 -36 -23 -74 -23 -84c0 -25 -19 -55 -23 -77c-4 -17 -1 -21 23 -34c47 -23 78 -95 67 -154c-10 -52 -77 -108 -169 -141
c-106 -37 -115 -42 -124 -66c-5 -13 -9 -30 -9 -38c0 -17 -16 -52 -23 -52c-6 0 -14 84 -15 90c0 5 -7 11 -15 11c-18 0 -45 15 -45 24c0 4 -13 20 -28 35c-48 48 -33 66 48 63c36 0 56 2 64 8c13 10 62 130 62 150c0 9 -12 16 -45 27c-25 8 -58 25 -73 37
c-23 19 -28 29 -41 75c-15 57 -15 106 3 140c21 42 108 104 146 104c5 0 22 6 37 14s40 15 55 18c16 3 31 7 33 10s14 6 27 6c23 0 39 11 39 28zM343 616c0 5 -18 4 -23 -1c-3 -3 -24 -11 -45 -18c-54 -19 -48 -23 -95 -47c-33 -18 -71 -62 -63 -75c5 -8 91 -35 121 -37
c22 -2 25 -1 40 32c26 53 65 141 65 146zM355 289c-26 7 -32 5 -44 -15c-6 -11 -18 -29 -25 -39c-15 -22 -11 -33 7 -20c6 5 19 12 29 16c22 9 49 34 49 45c0 4 -8 10 -16 13z" />
    <glyph glyph-name="percent" unicode="%" horiz-adv-x="747" 
d="M684 758c25 20 47 35 50 35s5 -13 5 -29c0 -36 -24 -79 -71 -132c-18 -20 -45 -52 -60 -70c-30 -36 -164 -158 -173 -158c-3 0 -21 -13 -41 -29c-67 -56 -119 -96 -127 -96c-11 0 -146 -140 -141 -148c2 -3 16 -5 31 -3s27 1 27 -2c0 -13 -54 -47 -81 -52
c-27 -4 -32 -3 -52 17s-21 23 -16 54c8 61 26 88 115 175c47 46 99 93 117 106c45 32 98 84 145 118c21 15 56 41 77 59c61 51 146 118 195 155zM181 762c20 15 21 13 26 -21c3 -18 11 -35 17 -40c20 -15 36 -44 47 -85c9 -36 8 -42 -2 -68c-14 -35 -41 -71 -61 -81
c-18 -8 -66 -28 -85 -36c-8 -4 -27 -8 -42 -8c-46 0 -71 37 -71 105c0 77 35 153 85 182c15 9 34 23 41 30c8 6 17 11 22 11s15 6 23 11zM82 501c11 0 40 28 52 28c5 0 27 11 47 25c31 20 37 28 37 44c0 21 -8 34 -34 52c-9 6 -20 11 -23 11c-11 0 -81 -70 -89 -90
c-10 -23 -3 -70 10 -70zM548 404c43 11 57 9 66 -14c5 -12 9 -33 9 -46c0 -15 6 -33 16 -48c41 -61 5 -163 -70 -199c-20 -10 -74 -21 -130 -29c-18 -2 -26 0 -26 5s-13 21 -28 38c-27 29 -27 31 -24 72c6 83 23 117 84 168c33 27 65 43 103 53zM556 292c-3 8 -11 15 -17 15
c-31 0 -91 -59 -117 -114c-13 -25 -12 -25 3 -40l15 -15l19 18c11 10 42 29 69 42c64 33 71 41 49 62c-9 9 -18 23 -21 32z" />
    <glyph glyph-name="ampersand" unicode="&#x26;" horiz-adv-x="652" 
d="M131 771l65 21l192 4l57 -23c19.4297 -7.84004 35 -40 43 -55c13 -26 14 -29 3 -62c-12 -36 -33 -63 -71 -89c-13 -10 -51 -36 -84 -59c-85 -61 -109 -76 -117 -76c-3 0 -9 -6 -14 -11c-8 -9 -4 -15 20 -38c33 -32 101 -83 109 -83s62 56 104 108c36 46 61 82 125 177
c46 67 63 75 77 35c11 -33 -2 -116 -25 -158c-3 -8 -19 -39 -34 -72s-48 -85 -72 -117s-48 -63 -51 -67c-4 -6 0 -17 15 -35c35 -44 41 -71 27 -133c-7 -29 -11 -66 -9 -83c3 -24 2 -30 -8 -30c-6 0 -16 4 -20 8c-7 7 -11 8 -16 0c-12 -20 -26 6 -41 74
c-16 71 -31 113 -41 113c-3 0 -25.6632 -14.4857 -50 -31c-56 -38 -192 -61 -213 -61c-23 0 -60 38 -70 56c-0.00488281 0.00878906 -16 35.9876 -16 36c0 27.247 -6.80556 43.0275 -6 68l6 186c4.60691 -8.3363 64 -174 64 -174c3 2 24 -6 45 -18l37 -21l33 18
c18 10 39 23 46 30c12 12 11 14 -31 50c-24 21 -56 51 -72 68c-60.4376 65.9319 -128 -278.076 -128 4c0 34 1 37 35 62c31 23 34 27 27 40c-4 8 -10 48 -13 88c-5 62 -3 82 8 122c16 58 19.7108 113.691 64 128zM384 716c-26 32 -58 35 -110 11c-37 -17 -104 -79 -104 -96
c0 -5 -5 -17 -11 -29c-17 -30 -17 -104 -2 -120c12 -11 13 -11 32 3c10 8 33 22 51 30c38 18 46 23 108 68c56 40 78 72 61 86c-5 5 -9 12 -8 16c2 4 -6 18 -17 31z" />
    <glyph glyph-name="parenleft" unicode="(" horiz-adv-x="555" 
d="M488 755c40.6104 -91.373 -100.755 -85.9284 -138 -112c-179.47 -125.629 -165 -36.1403 -165 -378c0 -31 3 -34 48 -71c70 -59 144 -97 246 -127c37 -11 68 -22 68 -25c0 -7 -171 -2 -233 7c-23 3 -71 16 -107 27c-73 23 -112 51 -160 116c-33 45 -37 63 -37 139
c0 342.516 414.008 571.182 478 424z" />
    <glyph glyph-name="parenright" unicode=")" horiz-adv-x="383" 
d="M142 774c0 21 3 26 14 26c44 0 114 -53 140 -106c28 -58 40 -88 40 -101c0 -7 4 -16 7 -19c10 -12 35 -178 32 -217c-3 -45 -8 -63 -25 -84c-7 -9 -12 -19 -10 -22c4 -7 -108 -127 -121 -130c-6 -1 -17 -9 -25 -15c-32 -28 -79 -56 -96 -56c-10 0 -21 5 -25 12
c-6 10 -9 10 -30 -11c-13 -12 -25 -22 -28 -22c-15 0 3 33 74 127c43 58 94 129 113 157l34 52v66c0 56 -4 79 -24 140c-23 75 -34 101 -57 149c-7 15 -13 39 -13 54z" />
    <glyph glyph-name="asterisk" unicode="*" horiz-adv-x="600" 
d="M222 370c-7 0 -63 -49 -71 -49c-4 0 -18 -12 -31 -25c-23 -23 -49 -29 -54 -13c0 4 26 38 61 78s62 74 61 75c-8 8 -100 -13 -115 -25c-22 -18 -31 -17 -46 0c-11 13 -14 44 -11 122c1 21 -11 63 -4 84c3 9 6 8 26 -6s68 -38 149 -76c45 -21 59 25 44 147
c-5 42 -6 79 -4 83c8 13 15 8 45 -28s38 -54 46 -115c3 -20 7 -39 10 -41c6 -4 146 133 146 143c0 4 3 6 6 6c6 0 22 -52 22 -75c0 -7 -16 -33 -36 -56l-36 -43l64 2c65 2 98 -9 98 -32c0 -20 -81 -46 -171 -56c-38 -4 -66 -14 -58 -19c2 -1 36 -17 76 -37s87 -49 106 -65
c63 -56 19 -55 -120 3c-51 21 -99 37 -107 37c-13 -2 -14 -8 -14 -89c0 -48 -3 -91 -6 -95c-20 -31 -51 21 -62 106c-5 32 -11 59 -14 59z" />
    <glyph glyph-name="plus" unicode="+" horiz-adv-x="858" 
d="M404 716c17 10 17 11 49 -17c40 -34 51 -74 52 -199l1 -98l87 -3c87 -3 238 -29 253 -44s-13 -30 -59 -31c-24 0 -97 -4 -161 -6s-122 -7 -128 -10c-8 -4 -17 -24 -23 -55c-19 -95 -41 -178 -56 -202c-8 -15 -16 -39 -16 -60c-1 -26 -5 -36 -14 -37c-18 -3 -43 16 -52 42
c-13 33 -20 37 -25 79c-3 19 -8 38 -11 42c-3 3 -8 43 -8 87l-2 79l-27 2c-30 3 -138 -14 -164 -16c-10 0 -33 -9 -53 -19l-37 -20v74c0 68 0 73 12 69c8 -2 35 -1 61 3c52 8 138 19 194 23c45 4 47 8 81 165c3 17 12 47 20 68c8 20 14 46 14 57c0 12 4 23 12 27z" />
    <glyph glyph-name="comma" unicode="," horiz-adv-x="164" 
d="M83 99c19 33 38 28 53 -14c5 -18 13 -35 15 -38c18 -18 -15 -77 -92 -162c-23 -26 -35 -35 -37 -28c-17 59 -17 67 2 106c10 21 25 56 32 76c7 21 19 47 27 60z" />
    <glyph glyph-name="hyphen" unicode="-" horiz-adv-x="826" 
d="M143 390c23 4 130 5 239 4c177 -2 209 -4 294 -20c53 -10 101 -22 108 -25c8 -4 38 -11 33 -23c-2 -6 -41 -9 -158 -9c-221 -2 -539 -27 -557 -45c-13 -13 -40 -7 -63 16c-18 18 -25 30 -28 56c-3 23 -1 33 5 33c44 2 92 8 127 13z" />
    <glyph glyph-name="period" unicode="." horiz-adv-x="119" 
d="M18 100c3 0 36 16 52 0c46 -48 54 -75 22 -75c-7 0 -13 -2 -13 -6c0 -3 -6 -8 -12 -8s-17 -5 -24 -11c-10 -10 -14 -9 -23 -2c-8 6 -2 102 -2 102z" />
    <glyph glyph-name="slash" unicode="/" horiz-adv-x="557" 
d="M414 653c0 7 42 45 42 53c0 3 10 16 22 29c18 19 27 23 41 20c10 -3 20 -8 23 -11c12 -12 6 -70 -13 -119c-17 -44 -89 -162 -138 -224c-23 -29 -35 -47 -46 -72c-4 -8 -20 -32 -35 -53c-15 -20 -28 -38 -28 -40c0 -3 -16 -28 -36 -57c-125 -181 -144 -212 -149 -235
c-3 -19 -5 -19 -45 -19h-42l5 47c7 65 11 55 35 109c10 23 32 61 48 84c51 73 123 180 135 201c6 12 17 31 24 42c26 41 105 160 131 199c15 22 26 43 26 46z" />
    <glyph glyph-name="zero" unicode="0" horiz-adv-x="504" 
d="M334 751c0 22 29 17 58 -11c15 -14 26 -28 26 -31s9 -20 20 -39c26 -43 59 -170 59 -234c0 -81 -24 -158 -72 -223c-11 -15 -21 -32 -21 -37c0 -13 -28 -43 -40 -43c-5 0 -11 -5 -13 -10c-10 -24 -89 -49 -176 -56c-33 -3 -64 -8 -68 -11c-13 -10 -20 13 -10 29
c7 10 5 15 -11 25c-51 29 -84 118 -74 197c16 136 62 219 191 344c58 56 77 68 120 82c6 2 11 10 11 18zM325 607c-5 25 -17 24 -43 -3c-56 -60 -86 -108 -130 -207c-6 -13 -16 -54 -22 -91c-10 -64 -11 -67 2 -100c18 -46 39 -54 72 -27c21 18 82 94 82 104c0 2 8 14 17 26
c38 51 55 185 34 255c-4 13 -10 32 -12 43z" />
    <glyph glyph-name="one" unicode="1" horiz-adv-x="480" 
d="M296 666c44 40 52 43 66 26c5 -5 13 -10 17 -10s14 -7 22 -13c31 -26 27 -149 -8 -218c-9 -18 -17 -38 -17 -43c0 -6 -4 -20 -9 -33c-12 -28 -36 -111 -51 -172c-5 -25 -14 -49 -17 -52c-18 -20 6 -29 92 -38c41 -3 66 -9 74 -16c10 -10 10 -12 -3 -16
c-7 -3 -20 -11 -28 -19c-14 -13 -25 -13 -175 -13c-103 0 -161 -1 -164 -6c-6 -10 -28 -9 -38 3c-5 5 -18 11 -29 11c-18 0 -20 2 -16 16c3 8 12 21 21 28s17 18 17 24c0 11 6 13 39 13l38 -1l10 28c5 15 16 53 24 86c16 67 27 99 73 219c44 115 44 110 24 104
c-9 -3 -22 -9 -28 -14c-5 -5 -14 -10 -18 -10c-3 0 -16 -9 -28 -19c-11 -11 -31 -25 -44 -32c-20 -10 -25 -10 -33 -2s-7 13 19 36c16 15 34 29 38 30c13 5 88 63 132 103z" />
    <glyph glyph-name="two" unicode="2" horiz-adv-x="623" 
d="M299 750c13 2 44 6 69 7c89 3 201 -54 204 -105c3 -42 -4 -81 -19 -110c-9 -18 -17 -37 -17 -42c0 -36 -165 -219 -238 -265c-38 -23 -36 -31 10 -35c31 -3 181 18 212 30c22 8 79 9 92 1c25 -16 -110 -102 -190 -121c-56 -13 -123 -13 -185 -1c-39 8 -74 11 -97 8
c-36 -4 -69 -6 -102 -4c-15 0 -16 1 -6 12c15 17 14 22 -6 22c-17 0 -18 2 -15 32c1 21 8 39 23 57c27 33 105 98 138 116c53 26 104 65 163 123c62 61 86 97 94 143c4 25 3 30 -13 40c-28 19 -84 15 -128 -7c-20 -10 -37 -23 -37 -28s-10 -15 -24 -21
c-18 -9 -24 -16 -22 -25c5 -19 -4 -22 -19 -6c-8 10 -16 12 -24 8c-13 -8 -26 1 -44 28c-12 19 -12 20 6 46c10 15 29 36 43 45c28 19 93 44 132 52z" />
    <glyph glyph-name="three" unicode="3" horiz-adv-x="557" 
d="M244 755c71 14 129 13 171 -6c53 -23 67 -42 72 -93c4 -38 3 -44 -15 -75c-10 -19 -31 -48 -46 -66s-26 -34 -26 -36s8 -5 17 -8c21 -5 115 -104 115 -122c0 -7 5 -16 10 -21c15 -12 -4 -28 1 -45c4 -10 1 -20 -20 -66c-5 -10 -36 -41 -72 -71l-64 -55l-65 -11
c-36 -6 -77 -11 -92 -11c-60 2 -119 10 -125 16c-10 9 -36 8 -64 -2c-33 -12 -40 -1 -19 27c18 23 42 38 88 51c34 10 61 18 99 25c92 13 132 30 179 72c15 14 19 23 19 50c0 31 -3 34 -31 57c-31 26 -61 32 -88 18c-8 -4 -25 -6 -38 -3c-21 3 -23 6 -20 21c3 13 2 17 -8 17
c-11 0 -13 4 -11 24c1 13 8 28 13 32s9 12 9 16c0 12 33 42 72 64c38 21 67 60 67 88c0 23 -23 49 -40 44c-6 -1 -23 -4 -36 -7c-46 -9 -73 -21 -104 -46c-67 -54 -62 -52 -73 -37c-9 13 -10 13 -20 0c-9 -13 -9 -12 -24 6l-14 19l13 27c8 15 13 32 13 38c0 15 33 20 38 30
c5 8 65 28 119 39z" />
    <glyph glyph-name="four" unicode="4" horiz-adv-x="684" 
d="M418 708c60 58 101 92 110 92c15 0 30 -24 30 -50c0 -8 5 -22 10 -29c12 -15 14 -57 4 -63c-3 -2 -7 -21 -7 -41c0 -38 -26 -158 -42 -197c-8 -18 -8 -24 -1 -31s12 -7 22 0c10 5 19 6 32 1c10 -4 22 -5 25 -2c3 2 14 -3 24 -11s24 -15 30 -15c13 0 21 -13 21 -34
c0 -17 -27 -32 -37 -22c-5 5 -11 5 -20 0c-7 -3 -12 -5 -12 -2c0 2 -5 1 -10 -3c-7 -6 -17 -7 -34 -2c-13 4 -34 5 -47 2c-24 -5 -20 4 -62 -148c-4 -14 -20 -43 -37 -64c-16 -21 -34 -46 -40 -54c-15 -20 -42 -13 -61 18c-18 29 -21 106 -4 165c15 51 10 57 -32 47
c-17 -5 -37 -8 -45 -8s-23 -4 -35 -7s-60 -8 -106 -8c-97 -2 -96 -2 -68 51c27 48 37 82 82 118c36 30 111 104 310 297zM426 566c0 18 -50 -21 -113 -87c-30 -31 -53 -58 -53 -61s-13 -13 -28 -23c-51 -36 -45 -42 39 -37c47 3 79 9 84 14c12 11 50 124 50 146
c0 8 6 21 11 29c5 7 10 16 10 19z" />
    <glyph glyph-name="five" unicode="5" horiz-adv-x="588" 
d="M237 763c20 21 21 20 37 -2l14 -18l116 12c122 13 150 10 150 -14c0 -20 -96 -48 -189 -56c-28 -2 -54 -8 -59 -12c-8 -8 -57 -125 -57 -135c0 -4 35 -1 104 12c58 10 114 3 147 -18c15 -9 29 -17 32 -17c14 0 36 -33 42 -64c11 -48 6 -136 -10 -165
c-46 -85 -169 -194 -253 -224c-94 -33 -201 -47 -224 -28c-5 5 -12 7 -14 4c-5 -5 -36 9 -55 24c-11 10 -11 13 2 36c15 28 32 40 76 53c55 15 89 31 149 48c63 18 84 29 136 71c56 45 88 92 94 140c3 29 2 36 -10 48c-15 15 -21 15 -110 0c-23 -3 -47 -11 -51 -16
c-12 -14 -29 1 -41 -13c-8 -10 -11 -10 -23 1c-17 15 -26 5 -28 -27c-3 -46 -17 -51 -52 -20c-20 19 -22 24 -22 61c0 50 19 122 56 207c15 36 27 72 27 80s7 23 16 32z" />
    <glyph glyph-name="six" unicode="6" horiz-adv-x="596" 
d="M327 758c40 6 142 -1 182 -2c30 -1 31 -2 29 -21c-1 -10 -8 -28 -15 -41c-13 -22 -12 -23 -73 -24c-122 -3 -204 -49 -248 -139c-21 -43 -14 -48 54 -38c58 8 150 1 183 -14c85 -38 127 -66 140 -96c20.8226 -51.3625 -26.2787 -220.522 -32 -225
c-36.5808 -28.139 -19.0758 -39.3621 -80 -72c-36 -17 -102 -29 -160 -29c-50 0 -68 4 -118 24c-61 23 -125 71 -125 91c0 6 -7 21 -16 33c-46 64 -50 179 -11 294c24 71 102 169 163 202c80 44 98 52 127 57zM417 411c-56 18 -180 13 -204 -7c-7 -5 -19 -10 -29 -10
c-17 0 -19 -4 -24 -35c-11 -72 4 -123 51 -168c34 -33 56 -38 134 -38c98 1 129 11 150 50c14 26 16 41 16 86v55l-31 28c-18 15 -46 34 -63 39z" />
    <glyph glyph-name="seven" unicode="7" horiz-adv-x="600" 
d="M418 790c94 16 113 13 145 -16c26 -23 29 -28 29 -57c0 -23 -4 -38 -16 -56c-10 -13 -42 -61 -71 -107c-48 -76 -51 -84 -41 -92c7 -5 12 -10 10 -11c-1 -1 -14 -11 -28 -20c-23 -15 -83 -83 -83 -93c0 -6 -74 -104 -87 -114c-5 -5 -10 -13 -10 -18s-19 -34 -42 -64
c-23 -31 -41 -58 -41 -60c0 -7 -32 -49 -58 -77s-61 -38 -80 -23c-14 11 -29 52 -33 92c-4 33 -2 44 20 91c24 51 76 132 117 184c10 14 19 28 19 30c0 8 -26 4 -72 -13c-44 -16 -49 -16 -61 -6c-18 15 -16 33 5 57c10 12 18 26 18 34c0 18 11 26 23 16
c13 -10 78 -15 118 -9c31 5 39 9 66 43c17 21 64 76 106 120c69 74 85 96 65 90c-3 -1 -47 -7 -97 -12c-49 -5 -112 -14 -138 -20c-39 -8 -50 -10 -55 -3c-10 16 -6 39 8 43c9 2 15 11 18 31c5 31 7 34 24 19c10 -8 22 -8 91 1c44 6 103 15 131 20z" />
    <glyph glyph-name="eight" unicode="8" horiz-adv-x="539" 
d="M327 783c0 -6 5 -13 10 -15c5 -3 10 -12 10 -23c0 -15 8 -26 34 -44c26 -20 33 -30 41 -56c4 -18 9 -40 9 -48c0 -23 -33 -85 -53 -98c-21 -14 -22 -25 -1 -25c23 0 96 -50 127 -87c24 -31 27 -37 27 -76c0 -37 -3 -47 -23 -75c-34 -46 -110 -96 -202 -129
c-113.269 -42.8587 -250.235 11.9005 -288 121c-13 39 -10 92 5 129c14 33 56 80 87 96c14 7 31 18 38 26c11 12 11 14 1 22c-32 26 -39 77 -19 127c15 40 29 57 80 98c27 21 44 40 44 49c0 31.7627 73 8 73 8zM331 666c-14 13 -30 23 -35 23c-28 0 -84 -95 -79 -133
c5 -36 88 -35 125 2c18 19 20 24 17 53c-3 26 -8 37 -28 55zM254 358c-16 -3 -21 -1 -34 14c-9 11 -19 16 -26 13c-20 -8 -56 -56 -59 -79c-9 -54 -9 -56 32 -77c21 -10 57 -21 78 -23l39 -5l49 44c44 39 49 46 49 68c0 16 -7 33 -17 46c-15 19 -18 20 -36 13
c-16 -5 -22 -5 -30 3c-8 9 -11 10 -18 0c-4 -6 -17 -14 -27 -17z" />
    <glyph glyph-name="nine" unicode="9" horiz-adv-x="447" 
d="M267 717c19 0 19 17 24 31c4 14 8 13 44 -5c16 -9 29 -21 29 -26c0 -6 11 -35 25 -63c33 -69 44 -108 49 -187c6 -94 -9 -184 -47 -264c-33 -71 -41 -85 -61 -106c-25 -27 -102 -62 -140 -64c-18 0 -61 -10 -97 -20c-68 -18 -83 -17 -83 8c0 18 25 36 101 74
c83 41 109 58 130 84c38 46 60 123 33 115c-5 -2 -39 -3 -72 -3c-54 0 -64 3 -89 19c-44 30 -54 53 -54 124c0 58 1 65 25 108c37 68 54 93 76 113c29 26 91 62 107 62zM271 604c-6 12 -16 22 -20 22c-20 0 -73 -48 -87 -78c-17 -36 -24 -106 -15 -140c10 -38 29 -49 80 -48
c77 2 75 0 70 78c-5 86 -13 138 -28 166z" />
    <glyph glyph-name="colon" unicode=":" horiz-adv-x="242" 
d="M81 599c11 21 28 13 71 -30c59 -60 89 -109 75 -127c-5 -5 -13 -7 -18 -5c-16 5 -56 -11 -85 -36c-38 -31 -74 -38 -95 -18c-33 31 -22 83 31 145c24 29 28 38 21 46c-5 7 -6 14 0 25zM111 263c27 27 52 50 55 50c2 0 8 -8 12 -18c5 -11 18 -34 31 -53
c21 -28 25 -39 25 -73c0 -46 -16 -75 -29 -54c-9 15 -34 14 -55 -3c-10 -8 -25 -13 -35 -13s-22 -6 -27 -11s-12 -10 -17 -10c-12 0 -39 42 -39 62c0 28 29 74 79 123z" />
    <glyph glyph-name="semicolon" unicode=";" horiz-adv-x="244" 
d="M173 576c13 8 26 15 29 15c7 0 34 -56 34 -73c0 -23 -29 -61 -52 -66c-12 -2 -48 -17 -80 -33c-70 -36 -76 -34 -63 27c8 41 11 42 59 78c27 20 60 44 73 52zM116 337c18 18 18 -23 33 -23c18 0 31 -41 36 -108c3 -54 3 -66 -5 -66c-11 0 -74 -68 -97 -106
c-13 -22 -49 -47 -69 -47c-5 0 -5 65 0 74c2 4 6 15 9 25c4 18 25 66 67 156c11 23 21 54 21 67s2 26 5 28z" />
    <glyph glyph-name="less" unicode="&#x3c;" horiz-adv-x="511" 
d="M257 460c-8 0 -30 -28 -37 -28c-11 0 -73 -42 -73 -50c0 -11 50 -21 56 -27c4 -3 33 -12 66 -20c67 -16 95 -26 135 -47c32 -17 89 -76 97 -99c13 -40 -45 -49 -87 -14c-47 39 -105 63 -214 87c-28 6 -71 19 -94 27c-23 9 -54 19 -69 22l-27 6l1 35c0 20 4 44 8 54
c4 11 7 25 7 33c0 25 35 49 184 128c15 8 41 22 56 32s64 39 110 62s87 46 91 49c14 14 26 -12 26 -60c1 -54 -3 -65 -23 -65c-7 0 -14 -3 -16 -6c-3 -5 -89 -58 -143 -87c-13 -8 -30 -18 -36 -23c-5 -5 -14 -9 -18 -9z" />
    <glyph glyph-name="equal" unicode="=" horiz-adv-x="709" 
d="M77 599c73 10 364 27 489 25c84 0 89 -1 113 -20c22 -17 24 -22 20 -42c-6 -37 -13 -40 -64 -32c-74 13 -391 -7 -538 -32c-47 -8 -58 -9 -66 -1c-12 13 -20 108 -9 108c4 0 9 -2 11 -5s22 -4 44 -1zM503 452c87 7 148 -2 179 -26c13 -10 14 -15 11 -33
c-5 -26 -21 -31 -131 -34c-216 -6 -189 -11 -350 -28c-58 -5 -111 -13 -116 -18c-13 -10 -24 -1 -45 35c-8 14 -22 32 -30 41c-8 8 -13 16 -11 16c1 0 12 2 23 3c29 3 116 18 147 21c82 11 229 15 323 23z" />
    <glyph glyph-name="greater" unicode="&#x3e;" horiz-adv-x="668" 
d="M446 362c-6 0 -81 -55 -87 -55c-3 0 -25 -14 -47 -31c-23 -18 -53 -39 -68 -50c-60 -44 -67 -52 -67 -69c0 -20 -7 -23 -45 -26c-27 -1 -28 0 -33 26c-10 44 24 106 94 174c31 30 68 59 82 65c31 15 152 99 152 107c0 3 -14 8 -30 12c-17 4 -49 14 -74 22s-51 13 -58 13
s-21 5 -31 10c-28 15 -120 31 -146 27c-13 -2 -25 -8 -27 -13c-5 -13 -16 -13 -16 0c0 6 -8 23 -18 38c-18 28 -23 72 -10 80c4 2 7 13 7 25c0 23 -1 23 29 10c13 -5 46 -15 72 -23c137 -38 244 -68 367 -98c45 -11 88 -25 94 -30c15 -13 39 -14 47 -35c33 -69 35 -86 8 -79
c-18 5 -41 -6 -83 -35c-18 -13 -37 -23 -42 -23c-6 0 -22 -9 -37 -21c-15 -11 -30 -21 -33 -21z" />
    <glyph glyph-name="question" unicode="?" horiz-adv-x="535" 
d="M79 793c44 8 166 2 233 -11c56 -10 97 -30 161 -74c44 -29 54 -42 54 -73c0 -21 -32 -69 -54 -81c-7 -3 -25 -16 -40 -28c-26 -21 -80 -50 -164 -90c-47 -22 -50 -25 -61 -74c-5 -21 -18 -54 -29 -74s-20 -41 -20 -48c0 -6 -5 -18 -10 -23c-5 -6 -13 -22 -16 -35
c-6 -21 -9 -24 -27 -22c-11 1 -26 8 -34 16c-21 21 -20 158 3 252c18 71 32 97 68 115c23 12 100 68 129 73c23 5 88 49 93 64c10 28 -150 52 -178 26c-8 -7 -14 -15 -14 -18s-8 -13 -17 -23l-16 -18l-11 16c-10 15 -11 15 -24 4c-8 -7 -15 -13 -17 -13c-5 0 -57 76 -70 104
c-13 27 -9 38 12 33c8 -2 30 -1 49 2zM121 71c14 23 36 -28 52 -28c22 0 100 -82 88 -94c-10 -10 -86 0 -101 13c-15 14 -45 99 -39 109z" />
    <glyph glyph-name="at" unicode="@" horiz-adv-x="806" 
d="M342 776c64 16 43 20 122 23c49 1 60 0 63 -9c2 -6 9 -11 13 -11c5 0 22 -7 39 -17c17 -9 41 -22 52 -27c31 -15 112 -92 131 -125c45 -79 48 -160 9 -225c-31 -51 -52 -68 -92 -74c-19 -3 -46 -11 -62 -17c-48 -21 -138 -49 -158 -49c-10 0 -21 -5 -23 -8
c-2 -4 -11 -5 -19 -3s-51 5 -94 6c-79 2 -79 2 -102 25c-27 26 -28 34 -17 105c8 48 9 49 77 120l67 71l60 19c45 14 64 16 71 11c10 -8 8 -39 -4 -60c-4 -8 -8 -26 -8 -39s-2 -25 -5 -28c-11 -10 -41 -119 -36 -126c6 -6 37 7 104 45c36 19 143 67 174 92
c23 20 27 27 27 49c0 62 -58 130 -149 172c-27 13 -55 26 -62 29c-10 5 -16 4 -24 -6s-21 -15 -46 -15c-69 -2 -117 -26 -218 -105c-28 -21 -57 -64 -92 -133c-51 -103 -45 -199 17 -245c33 -25 94 -51 141 -59c105 -19 313 -3 380 30c23 11 39 15 52 12
c27 -8 26 -18 -5 -39c-15 -10 -27 -22 -25 -25c8 -16 -89 -35 -89 -35c-6 0 -11 -2 -11 -6c0 -3 5 -7 10 -7s10 -4 10 -7c0 -12 -109 -22 -150 -27c-31 -4 -73 -6 -94 -4c-80 8 -178 31 -200 48c-5 4 -20 13 -33 20s-38 28 -56 47c-30 33 -37 42 -63 93c-7 13 -12 45 -13 80
c-3 74 11 135 44 185c13 20 24 37 24 40c0 5 43 64 76 102c40 46 111 87 187 107zM367 413c5 20 8 38 5 41c-12 12 -87 -55 -107 -94c-21 -42 -2 -61 62 -63l25 -1l2 41c1 21 7 56 13 76zM641 90c0 11 29 20 28 5c0 -9 -28 -13 -28 -5z" />
    <glyph glyph-name="A" unicode="A" horiz-adv-x="759" 
d="M253 604c0 4 48 64 48 70c0 3 6 12 13 18c8 7 18 22 23 34c5 13 18 33 30 48l20 26h93c83 0 93 -2 96 -12c2 -7 8 -20 13 -30c10 -20 9 -42 -8 -68c-8 -12 -12 -36 -12 -86c0 -39 -4 -76 -7 -81c-10 -19 19 -68 35 -43c2 4 11 7 19 7s25 6 35 11c18 9 20 9 23 -1
c6 -17 -28 -75 -71 -119c-15 -15 -16 -45 -2 -54c3 -2 6 -11 6 -20c0 -22 14 -19 14 -39c0 -7 2 -19 5 -26c23 -47 42 -74 73 -107c10 -11 28 -33 38 -48c15 -23 17 -30 12 -50c-5 -15 -12 -23 -22 -24c-8 -1 -16 -7 -16 -13c0 -8 -4 -10 -22 -7c-13 3 -29 5 -36 5
s-16 8 -20 18c-4 9 -13 16 -18 16c-11 0 -62 43 -74 63c-42 67 -57 98 -67 124c-5 18 -14 33 -18 34c-8 3 -120 -114 -146 -153c-16 -24 -17 -29 -9 -55c9 -27 10 -28 -11 -49l-21 -21l-40 9c-21 5 -41 12 -43 15s-12 5 -22 5c-40 0 -72 16 -103 47c-18 18 -30 38 -30 47
c0 8 -6 20 -11 25c-18 15 -11 40 18 75c15 18 27 36 27 39c0 4 75 155 98 197c3 6 15 33 27 59s30 62 42 79c11 17 21 33 21 35zM413 460c-1 8 -6 62 -15 62c-18 0 -65 -142 -82 -178c-8 -16 -15 -33 -15 -36c0 -8 -28 -29 -28 -37c0 -15 16 -5 125 91c21 19 23 23 19 54
c-2 18 -4 39 -4 44z" />
    <glyph glyph-name="B" unicode="B" horiz-adv-x="809" 
d="M94 786c10 11 24 13 96 13c75 0 86 0 103 -13c18 -14 20 -14 52 -3c22 8 64 13 128 15c80 3 99 2 120 -8c13 -6 24 -15 24 -20s5 -14 10 -19c23 -20 10 -52 -47 -116c-25 -28 -29 -47 -9 -39c5 2 35 -1 66 -4c49 -6 63 -11 90 -31c70 -51 82.5223 -75.1155 69 -135
c0 0 -27.6181 -204.879 -142 -241c-19 -6 -41 -20 -51 -29c-10 -8 -20 -16 -23 -16s-19 -11 -37 -26c-26 -22 -39 -27 -90 -36c-58 -10 -60 -11 -74 -36c-13 -21 -14 -29 -7 -49c4 -13 9 -33 12 -46l5 -22h-56c-47 0 -58 2 -70 14c-8 8 -14 17 -14 21c0 3 -11 27 -24 53
c-24 48 -41 110 -53 204c-13 107 -26 240 -25 252c0 9 -6 15 -26 22c-30 10 -64 40 -92 82l-19 26l21 17c11 9 23 17 26 17s19 12 36 26c26 21 29 28 26 43c-2 10 -8 23 -12 28c-23 32 -26 43 -13 56zM550 704c-5 8 -18 7 -34 -4c-8 -5 -21 -10 -28 -10
c-25 1 -92 -15 -100 -25c-6 -7 -7 -23 -4 -50c8 -67 21 -79 50 -48c11 13 23 18 41 18s25 3 28 12c2 6 7 18 10 23c20 31 40 79 37 84zM654 499c-13 5 -25 9 -25 9c-1 0 -16 -4 -36 -9c-59.8278 -12.5953 -177 -41.6402 -177 -53c0 -6 -6 -19 -12 -28
c-8 -13 -13 -33 -13 -76c0 -33 -4 -75 -7 -95c-5 -38 3 -52 18 -34c5 5 16 11 24 11s23 5 32 12c23 17 42 29 55 34c62 26 101 50 141 88c25 24 46 48 46 53c0 4 -5 23 -12 43c-9 28 -15 37 -34 45z" />
    <glyph glyph-name="C" unicode="C" horiz-adv-x="731" 
d="M403 594c-284.705 -42.0967 -389.848 -701.545 215 -396c5.2041 2.62891 63 14 76 6c12.2959 -7.56688 117.249 -204.27 -350 -203c-343.213 0.932643 -48 -13 -291 22c-294.434 42.4082 264.601 742.522 288 745c680 72 319 -136 62 -174z" />
    <glyph glyph-name="D" unicode="D" horiz-adv-x="767" 
d="M346 799l329 -21l41 -18c67.0176 -29.4224 43 -79 43 -148c0 -66 -6 -107 -27 -152c-6 -13 -17 -37 -23 -52c-42 -96 -104 -188 -150 -224c-43.9766 -29.3177 -98.7881 -89.6168 -144 -125c-64.3384 -50.3518 -216.157 -16.2812 -252 -101
c-252.952 -31.3417 -155.953 91.9959 -105 262c147.971 493.702 -135.115 605.327 288 579zM287 678c13 -15 81.9998 -148 -55 -367c-145.27 -232.22 53.1329 -163.329 43 -165c-12.8268 -2.11529 202.134 141.9 244 198c50 67 103 185 113 253c8 56 8 58 -10 91
c-50.8976 95.0088 -343.868 0.838873 -335 -10z" />
    <glyph glyph-name="E" unicode="E" horiz-adv-x="821" 
d="M39 771l-4 29h368c367 0 389 -2 404 -24c17 -24 -3 -52 -36 -52c-7 0 -15 -4 -16 -7s-23 -3 -54 0c-28 3 -83 9 -121 13c-87 9 -207 12 -217 6c-8 -5 -7 -12 13 -124c7 -40 12 -96 12 -158c0 -13 2 -26 4 -29s19 -1 39 4c36 11 85 8 93 -5c5 -8 -24 -49 -31 -44
c-3 1 -30 -5 -60 -13l-55 -15l-2 -48c0 -26 -5 -53 -9 -60c-3 -7 -5 -24 -2 -39c2 -15 0 -35 -4 -47c-4 -11 -11 -45 -14 -76c-3 -30 -10 -57 -13 -62c-85.2305 -113.641 351 58 389 -51c3.03501 -8.70567 13 -19 13 -28v-16l-349 1l-349 3l-14 27c-11 23 -14 43 -14 105
c0 87 14 291 24 352c21 126 23 218 5 358z" />
    <glyph glyph-name="F" unicode="F" horiz-adv-x="739" 
d="M131 794c12 1 151 2 309 2c271 0 289 0 291 -12c1 -8 -8 -22 -24 -37c-45 -42 -46 -44 -260 -54c-25 -1 -52 -6 -61 -10c-13 -8 -15 -13 -10 -35c6 -28 5 -148 -1 -174c-4 -15 -2 -16 19 -12c13 2 35 13 50 23s31 18 36 18c4 0 10 1 13 5c6 10 56 8 66 -3
c13 -17 -6 -48 -33 -53c-12 -2 -30 -11 -40 -19s-23 -15 -28 -15s-16 -5 -25 -13c-9 -7 -28 -17 -43 -22c-33 -10 -39 -23 -39 -105c0 -81 -13 -157 -30 -179c-7 -9 -12 -20 -12 -23c0 -7 -14 -28 -50 -70c-10 -13 -24 -36 -30 -52l-12 -29h-44c-40 0 -44 1 -55 19
c-19 28 -26 59 -34 172l-8 104l-23 -2c-24 -3 -43 8 -43 24c0 5 5 9 10 9c16 0 51 24 59 39c4 8 9 71 11 142c4 138 8 205 14 240c3 18 0 27 -14 44c-22 26 -27 60 -8 57c8 -1 17 3 21 9c5 5 17 11 28 12z" />
    <glyph glyph-name="G" unicode="G" horiz-adv-x="757" 
d="M584 29c-8 0 -67 -42 -74 -42c-3 0 -16 -4 -29 -10c-40 -20 -223 -10 -250 13c-5 5 -19 12 -29 15c-23 8 -109 83 -118 103c-3 8 -9 20 -12 25c-21 37 -29 59 -39 108c-6 31 -15 71 -19 90c-15 71 8 156 62 227c33 44 110 112 141 126c10 4 25 13 35 19
c22 14 76 32 125 42c59 12 73 19 149 20c56 0 67 -1 98 -19c31 -17 34 -21 34 -43c0 -18 -4 -25 -14 -28c-8 -2 -22 -9 -32 -16c-16 -11 -24 -11 -62 -6c-51 8 -93 -2 -125 -31c-10 -9 -28 -20 -41 -24c-42 -15 -83 -42 -125 -82l-42 -39v-53c0 -68 13 -116 55 -202
c39 -79 66 -112 108 -131c48 -21 111 -2 167 52c26 25 32 39 52 102c12 40 27 91 35 113c7 23 12 43 12 43c-8 8 -118 -33 -147 -55c-13 -10 -26 -18 -28 -18s-14 9 -28 21c-24 21 -32 49 -17 59c4 2 6 12 4 21c-5 22 2 25 22 10c21 -17 43 -17 89 -3c19 5 43 10 55 10
s26 5 31 10s16 11 24 11c9 0 18 5 20 11c8 20 34 8 42 -18c3 -13 14 -34 23 -47c13 -18 16 -28 13 -59c-4 -41 -16 -155 -16 -199c0 -34 -13 -50 -43 -50c-13 0 -31 -12 -58 -38c-22 -21 -44 -38 -48 -38z" />
    <glyph glyph-name="H" unicode="H" horiz-adv-x="646" 
d="M548 719c36 92 47 101 77 57c18 -26 18 -51 -2 -97c-5 -12 -14 -32 -20 -46c-41 -94 -63 -201 -95 -302c-11 -34 -28 -97 -38 -139c-21 -88 -60 -168 -88 -184c-10 -5 -22 -8 -25 -5c-15 15 4 140 42 268c14 48 23 89 22 91c-9 7 -113 -27 -148 -34
c-33 -8 -38 -18 -50 -82c-9 -48 -38 -135 -59 -177c-13 -25 -25 -37 -48 -48l-31 -14l-19 14c-10 8 -24 14 -30 12c-32 -10 -36 197 -4 250c9 17 24 71 31 90c6 18 80 248 87 264c12 30 15 49 32 75c8 12 20 35 28 52c8 16 16 29 17 29c11 0 72 -55 85 -76l16 -27l-14 -58
c-14 -56 -41 -186 -44 -207c-2 -13 18 -12 89 3c31 7 65 14 76 14c19 0 21 5 29 32c17 58 52 162 84 245z" />
    <glyph glyph-name="I" unicode="I" horiz-adv-x="545" 
d="M229 732l-19 21l17 -5c21 -6 24 -6 141 -1c65 3 101 1 111 -4c25 -13 33 -12 49 -40c12 -21 12 -23 1 -36c-6 -8 -16 -13 -21 -13s-8 -8 -5 -26c2 -20 -3 -36 -18 -67c-11 -23 -22 -53 -25 -66s-10 -38 -15 -56c-13 -41 -45 -183 -49 -219c-1 -15 -6 -33 -10 -41
c-3 -8 -8 -22 -8 -32c-2 -18 -1 -17 47 -17s101 -16 101 -31c0 -10 -35 -35 -55 -39c-10 -2 -24 -7 -32 -10c-26 -11 -152 -34 -212 -38c-33 -3 -71 -9 -86 -12c-24 -5 -34 -2 -72 18c-50 25 -55 29 -58 53c-2 17 -1 18 39 18c23 0 59 4 80 7l38 6l-2 63c-3 77 8 123 54 220
c18 40 37 84 41 99c13 40 47 118 62 143c2 4 -58 36 -83 44c-15 5 -17 31 -2 37c9 3 7 6 -9 24z" />
    <glyph glyph-name="J" unicode="J" horiz-adv-x="672" 
d="M425 776c21 11 40 13 45 4c2 -3 17 -8 33 -10c41 -4 71 -22 106 -40c13 -6 22 -17 23 -27s7 -23 12 -28c23 -28 26 -41 10 -63c-8 -12 -26 -61 -38 -110c-31 -122 -68 -227 -94 -265c-6 -10 -14 -25 -17 -33c-8 -28 -46 -84 -59 -88c-8 -3 -18 -10 -21 -18
c-6 -11 -58 -41 -72 -41c-3 0 -15 -7 -27 -15c-13 -10 -34 -17 -55 -18c-19 -1 -39 -5 -45 -8c-15 -8 -86 3 -113 17c-28 15 -68 63 -88 106c-15 32 -16 42 -13 90c2 29 5 62 5 72c3 47 50 -8 65 -8c13 0 66 -62 70 -82c3 -14 0 -23 -10 -32c-18 -16 -21 -59 -5 -64
c5 -3 30 0 51 5c39 10 39 11 76 69c20 33 44 75 54 94c31 58 43 79 51 89c31 38 145 295 135 305c-1 2 -17 -1 -35 -6s-69 -14 -113 -20c-44 -7 -87 -17 -95 -22c-13 -8 -19 -7 -56 12c-42 21 -58 37 -66 69c-5 18 -4 19 28 19c51 2 147 22 195 30c24 4 53 12 63 17z" />
    <glyph glyph-name="K" unicode="K" horiz-adv-x="718" 
d="M93 712c0 7 11 5 20 -4c5 -5 19 -9 33 -10c46 -3 105 -47 133 -98c13 -24 13 -29 4 -38c-13 -13 -18 -131 -5 -135c5 -2 40 27 69 60c22 24 107 90 167 130c38 26 78 55 90 66c18 17 28 21 63 22c38 1 41 0 43 -15c3 -22 -38 -66 -120 -128c-64 -48 -275 -235 -280 -248
c-1 -3 11 -15 28 -28c39 -30 79 -67 148 -137c31 -32 61 -57 65 -57c9 0 41 -34 42 -46c0 -3 -11 -7 -24 -8c-36 -3 -98 36 -203 129c-81 71 -108 91 -116 78c-2 -3 -9 -26 -14 -50c-20 -85 -27 -106 -47 -134c-11 -15 -24 -34 -28 -41c-5 -7 -22 -17 -39 -20
c-28 -6 -33 -5 -59 13c-42 29 -53 61 -53 152s24 233 35 312c3 31 16 95 27 143c12 49 21 89 21 92z" />
    <glyph glyph-name="L" unicode="L" horiz-adv-x="641" 
d="M257 747c4 13 10 17 15 14s21 -7 35 -7s43 -11 66 -21c36 -18 42 -25 59 -58c16 -34 19 -45 16 -94c-5 -73 -27 -206 -28 -281c-1 -56 -15 -130 -30 -157c-8 -15 -34 -85 -37 -99c-3 -13 23 -21 105 -33c36 -5 80 -12 95 -15c36 -8 84 -32 80 -40
c-15 -28 -193 -32 -265 -4c-39 15 -102 19 -115 8c-3 -3 -29 -13 -57 -21c-61 -18 -102 -15 -133 11c-11 9 -23 17 -26 17c-11 0 -31 25 -26 33c2 4 13 8 23 8c33 0 38 9 29 41c-16 60 -11 110 20 202c16 48 33 97 38 108c15 31 46 119 60 170c15 54 52 164 62 184
c3 8 10 24 14 34z" />
    <glyph glyph-name="M" unicode="M" horiz-adv-x="723" 
d="M155 784c14 15 21 16 94 16c76 0 77 0 77 -15c0 -9 2 -35 4 -58c1 -9 20 -274 25 -274c3 0 9 9 14 19c16 34 95 145 153 211c31 36 65 76 74 91c16 24 18 26 54 26c60 0 69 -14 64 -111c-5 -94 -10 -129 -31 -193c-11 -33 -23 -71 -26 -83c-3 -13 -8 -24 -11 -26
c-3 -3 -6 -14 -6 -27s-6 -38 -11 -57s-11 -49 -13 -69c-7 -57 -12 -74 -27 -99c-13 -23 -23 -63 -29 -118c-3 -32 -14 -45 -34 -37c-9 3 -19 3 -24 0c-12 -7 -35 0 -53 15c-8 6 -26 18 -41 27c-44 26 -63 84 -46 146c18 70 55 182 82 249c21 53 16 63 -9 17
c-10 -18 -24 -41 -30 -51c-7 -10 -14 -22 -17 -30c-9 -23 -63 -96 -70 -93c-10 3 -32 79 -40 137c-6 50 -20 209 -20 242c0 31 -12 14 -27 -38c-23 -82 -39 -133 -63 -197c-12 -33 -28 -83 -34 -111c-30 -123 -67 -196 -94 -186c-5 2 -13 16 -15 31c-3 15 -7 35 -11 46
c-5 13 -5 27 0 48c4 16 9 43 12 61c2 17 7 36 10 42c15 31 27 65 27 75c0 6 13 62 29 123c37 148 48 197 48 217c0 10 7 25 15 34z" />
    <glyph glyph-name="N" unicode="N" horiz-adv-x="734" 
d="M109 677l-2 47l20 -5c10 -3 24 -8 29 -12c21 -15 41 -25 54 -25c8 0 36 -15 64 -34c51 -35 71 -59 117 -147c11 -21 27 -49 35 -62s19 -33 24 -45c5 -11 15 -26 21 -31c7 -5 11 -12 11 -15c0 -11 58 -124 63 -124c3 0 10 20 17 44c13 44 39 119 88 257
c15 42 29 93 30 114c3 45 3 51 28 22c13 -15 18 -30 18 -49c0 -27 -18 -122 -28 -152c-15 -43 -51 -137 -56 -147c-6 -12 -13 -75 -20 -86c-3 -3 -7 -16 -10 -28c-3 -11 -10 -30 -16 -43c-9 -20 -9 -24 1 -44c12 -23 9 -34 -7 -34c-5 0 -20 -6 -33 -14
c-21 -13 -25 -13 -33 -3c-5 5 -16 10 -26 10c-31 0 -80 29 -124 73c-38 38 -50 60 -121 203c-44 88 -82 161 -84 161c-3 0 -12 -30 -20 -67c-8 -38 -20 -77 -25 -90c-5 -12 -10 -31 -10 -41s-3 -28 -6 -40c-4 -12 -12 -57 -18 -99c-15 -106 -52 -207 -69 -189
c-12 11 -14 89 -6 174c6 64 18 133 39 218c42 166 56 246 55 303z" />
    <glyph glyph-name="O" unicode="O" horiz-adv-x="817" 
d="M343 788c38 17 61 15 82 -8c13 -14 29 -22 50 -25c110 -17 242 -103 286 -188c8 -15 22 -36 31 -49c15 -20 17 -30 17 -84c0 -38 -3 -72 -9 -90c-6 -15 -13 -34 -15 -44s-19 -34 -39 -54c-19 -20 -35 -41 -35 -46s-11 -18 -24 -31c-13 -12 -24 -26 -24 -29
c0 -4 -6 -7 -11 -7c-6 0 -12 -5 -15 -11c-4 -12 -90 -79 -101 -79c-4 0 -20 -8 -34 -18c-48 -33 -169 -42 -273 -20c-62 13 -150 80 -194 145l-25 38v340l28 41c37 54 108 118 160 141c14 7 27 15 30 19c3 5 42 26 115 59zM506 622c-63 29 -97 16 -189 -68
c-44 -40 -79 -88 -92 -122c-28 -78 -35 -103 -35 -133c0 -58 15 -94 56 -143c44 -53 69 -71 107 -71s120 40 181 89c28 23 71 54 94 71c28 19 46 36 50 49c4 11 15 24 24 27c18 7 20 24 17 73c-2 25 -40 101 -50 101c-4 0 -27 18 -50 41c-48 45 -82 71 -113 86z" />
    <glyph glyph-name="P" unicode="P" horiz-adv-x="682" 
d="M206 752c4 11 10 19 12 18c35 -21 63 -27 107 -27c113 3 277 -49 329 -105c22 -23 27 -58 10 -85c-16 -24 -81 -73 -151 -111c-26 -15 -58 -33 -70 -41c-28 -21 -62 -29 -91 -50c-12 -8 -27 -16 -32 -16c-15 0 -23 -14 -35 -56c-11 -42 -29 -98 -37 -139
c-2 -13 -11 -35 -20 -48c-20 -31 -92 -99 -115 -109c-26 -11 -76 -7 -84 7c-3 6 -7 46 -10 89c-3 76 -3 82 23 183c15 58 32 121 37 142c12 51 59 195 73 223c17 33 4 34 -37 26c-28 -5 -41 -6 -53 0c-9 5 -24 8 -33 7c-14 -1 -16 1 -18 19c-2 20 -2 21 16 18
c10 -1 41 3 69 11c27 8 61 17 76 19c21 3 28 8 34 25zM425 681c-78 13 -75 15 -72 -35c1 -23 1 -46 -2 -50c-9 -14 -23 -145 -26 -165c-3 -21 -2 -27 6 -27c5 0 14 6 19 11s12 10 15 10c8 0 126 93 164 128c25 23 29 48 10 71c-21 26 -67 49 -114 57z" />
    <glyph glyph-name="Q" unicode="Q" horiz-adv-x="756" 
d="M450 779c5 8 54 -42 62 -62c2 -5 20 -18 40 -28c54 -26 124 -87 152 -131c35 -54 44 -96 44 -182c0 -60 -3 -79 -15 -103c-13 -27 -14 -30 -4 -36c10 -5 6 -12 -31 -48c-24 -23 -44 -46 -44 -51c0 -9 43 -61 40 -70c-8 -22 -80 -1 -91 27c-6 16 -21 13 -70 -17
c-25 -15 -48 -28 -51 -28s-20 -7 -39 -17s-39 -18 -46 -18s-15 -3 -18 -7c-3 -5 -27 -7 -78 -5c-65 3 -78 6 -116 25c-122 64 -182 183 -174 369c3 94 15 132 60 198c29 42 107 106 142 116c15 4 34 14 42 21s24 15 37 17c12 3 26 9 30 14c5 7 25 9 66 9c32 0 60 4 62 7z
M458 619c-15 8 -28 14 -31 14c-33 -3 -96 -43 -125 -79c-37 -44 -63 -111 -68 -169c-3 -41 22 -183 40 -222c15 -33 54 -64 77 -64c20 0 92 22 120 37c12 6 24 11 28 11s11 4 15 9c6 7 -2 19 -34 51c-45 44 -68 82 -68 110c0 21 7 23 24 4c7 -8 17 -14 22 -14s30 -19 54 -42
s48 -41 52 -38c3 2 13 16 20 30c36 71 38 176 4 238c-21 37 -85 99 -130 124z" />
    <glyph glyph-name="R" unicode="R" horiz-adv-x="690" 
d="M299 768c13 30 20 31 36 8c6 -10 18 -18 27 -18c8 0 21 -5 28 -13c10 -11 21 -15 61 -15c92 0 167 -33 186 -82c3 -9 10 -13 14 -10c13 7 -8 -39 5 -39c4 0 8 -12 8 -25s-4 -24 -7 -24c-5 0 -5 -4 -1 -12c8 -15 -15 -58 -31 -58c-5 0 -13 -6 -16 -13
c-4 -7 -16 -17 -26 -21c-24 -9 -60 -40 -85 -47c-25 -5 -35 -22 -60 -29c-13 -3 -24 -13 -32 -29c-18 -35 -15 -53 8 -74c12 -10 21 -22 21 -26s38 -47 85 -95c64 -67 94 -91 125 -106c22 -10 38 -22 36 -25c-6 -10 -65 -7 -100 5c-44 15 -108 62 -165 123
c-26 29 -53 53 -56 53c-8 0 -30 -39 -43 -70c-5 -13 -13 -27 -16 -31c-10 -12 -6 -22 9 -19c8 2 18 0 23 -4c4 -3 20 -10 35 -14c56 -18 17 -33 -100 -38c-87 -4 -159 -18 -177 -33c-13 -11 -45 2 -60 1c-12 -1 -19 16 -18 41c0 5 -1 16 -2 21c-2 8 1 9 14 8c10 0 33 1 51 6
c43 10 49 25 49 115c0 64 4 78 37 180c20 61 45 144 58 184s26 77 29 82c14 18 -2 20 -45 10c-24 -5 -56 -16 -71 -23c-33 -16 -40 -11 -43 31l-3 30l39 5c45 4 84 21 124 28c18 3 28 10 32 20c3 8 12 27 17 42zM508 679c-19 3 -40 6 -47 7c-17 5 -21 -7 -16 -48
c4 -31 -1 -96 -14 -173c-4 -25 2 -24 51 2c56 31 65 38 90 70c24 31 25 38 4 95c-12 34 -21 41 -68 47z" />
    <glyph glyph-name="S" unicode="S" horiz-adv-x="642" 
d="M524 793c18 10 29 8 24 -6c-3 -9 1 -16 11 -24c9 -6 15 -12 13 -14c-3 -3 -28 -9 -113 -29c-52 -12 -102 -46 -112 -74c-5 -15 -16 -27 -34 -36c-36 -20 -66 -57 -71 -92l-4 -29l39 -25c21 -14 44 -25 49 -25s11 -3 13 -6c3 -6 128 -47 133 -52c4 -3 24 -15 45 -29
c45 -30 83 -65 83 -77c0 -4 7 -12 15 -17c10 -7 16 -21 18 -43c3 -31 2 -33 -29 -64c-20 -18 -37 -29 -42 -27s-18 -3 -28 -11c-23 -18 -77 -42 -94 -42c-7 0 -23 -5 -36 -10c-30 -13 -156 -34 -196 -33c-15 0 -56 -6 -90 -14c-48 -11 -64 -13 -74 -7c-7 5 -18 8 -23 8
s-11 4 -11 8c0 14 38 55 52 55c8 0 24 5 35 11c45 25 72 38 105 49c18 5 47 16 63 24c17 7 31 13 33 13c11 0 93 61 101 74c15 28 4 50 -33 65c-51 22 -60 26 -82 34c-32 13 -129 97 -150 132c-36 60 -21 133 41 194c21 20 43 36 48 36s25 5 43 13c50 20 108 35 192 53
c31 6 61 14 66 17z" />
    <glyph glyph-name="T" unicode="T" horiz-adv-x="743" 
d="M375 217c0 -17 -21 -26 -21 -43c0 -33 -94 -131 -134 -139c-25 -5 -45 8 -60 15c-20 9 -36 75 -36 142c0 60 12 112 43 181c18 39 63 159 82 201c23 54 27 67 26 77c0 9 -40 10 -94 2c-25 -3 -65 -8 -88 -10c-39 -3 -43 -2 -62 18c-15 16 -17 22 -10 30c6 8 5 12 -3 19
c-15 13 -6 21 13 13c17 -8 146 7 200 22c12 3 33 6 48 6c35 0 46 6 59 29c12 23 12 23 35 8c20 -13 29 -13 192 -5c69 3 109 2 119 -3c8 -4 23 -11 34 -15c33 -12 20 -19 -42 -28c-120 -16 -186 -27 -192 -33c-3 -3 -1 -14 6 -25c8 -11 11 -23 8 -36
c-4 -17 -24 -156 -28 -194c0 -8 -9 -25 -17 -38s-19 -36 -23 -49c-5 -13 -18 -40 -29 -60c-13 -23 -18 -42 -15 -50c5 -19 -11 -18 -11 -35z" />
    <glyph glyph-name="U" unicode="U" horiz-adv-x="804" 
d="M124 659c54.286 54.286 173.642 -45.2891 154 -116c-38.5633 -138.828 -75.8502 -246.787 -38 -416c11 -54 21 -76 54 -112c40 -44 63 -37 176 52c209.166 165.89 87.6212 148.2 205 396c28 59 38 91 38 124c0 43 6 51 39 48c32 -4 47 -27 42 -61
c-28.5085 -188.156 -173.366 -519.653 -360 -622c-42 -23 -46 -24 -143 -26l-99 -2l-50 32c-61 38 -86 72 -117 158c-30 83 -13 264 31 343c19.7791 35.6023 12.5755 45.436 29 75c6.90247 10.3537 31 102.722 31 108c0 6 4 15 8 19z" />
    <glyph glyph-name="V" unicode="V" horiz-adv-x="692" 
d="M410 326c0 5 41 60 41 65c0 8 41 67 49 72c3 3 7 10 7 17s13 31 28 53c15 23 27 45 27 50s7 22 15 37c8 16 17 38 19 50c7 31 24 32 58 -1l30 -28l-19 -19c-11 -11 -19 -24 -19 -27s-5 -11 -10 -16c-5 -6 -27 -42 -48 -78s-56 -93 -77 -128c-21 -34 -43 -71 -46 -79
c-4 -9 -17 -29 -30 -44c-13 -16 -32 -44 -42 -64c-26 -50 -24 -44 -54 -95c-33 -56 -58 -83 -71 -78c-7 3 -11 0 -11 -6c0 -26 -67 -48 -100 -33c-27 13 -80 98 -102 166c-38 117 -60 509 -32 561c9 18 15 21 21 16c4 -4 22 -8 38 -11c15 -2 34 -11 40 -18
c6 -8 16 -13 19 -13c10 0 39 -28 39 -37c0 -7 10 -30 36 -83c8 -16 32 -125 41 -185c3 -25 10 -48 14 -53s9 -37 10 -70c2 -65 8 -100 18 -100c3 0 13 16 22 34c10 19 33 58 53 87c20 30 36 56 36 58z" />
    <glyph glyph-name="W" unicode="W" horiz-adv-x="782" 
d="M758 753c5 10 10 19 13 19c8 0 -1 -92 -11 -121c-18 -51 -40 -127 -64 -222c-18 -70 -72 -228 -92 -264c-15 -26 -14 -29 -6 -86c4 -33 10 -64 11 -69c3 -12 -14 -18 -37 -12c-27 6 -92 77 -118 129c-12 24 -31 72 -42 105c-12 34 -23 65 -25 67c-7 6 -15 -7 -32 -51
c-28 -74 -44 -108 -58 -120c-16 -15 -39 -59 -39 -75c0 -6 -8 -28 -17 -48s-21 -45 -26 -58l-9 -23c-37 1 -74 4 -111 5l-22 107c-24 123 -34 255 -44 382c-4 44 -8 125 -8 181s-4 110 -8 123c-9 29 1 45 21 31c6 -5 28 -16 48 -26c34 -15 42 -25 76 -83
c20 -33 28 -58 36 -104c5 -26 13 -60 16 -73c8 -33 34 -213 34 -238c0 -11 4 -19 7 -18c11 3 75 145 83 183c4 20 10 47 13 62s10 28 13 31c3 2 8 26 8 52s3 49 5 51s13 -5 26 -17c12 -12 33 -33 48 -47c14 -13 26 -26 26 -29c0 -2 6 -11 13 -21c8 -9 16 -32 18 -50
c6 -51 18 -107 25 -120c3 -7 7 -21 7 -31c0 -20 11 -45 20 -45c3 0 8 12 11 26c6 36 71 235 90 277c15 34 60 155 79 184c6 10 17 25 22 36z" />
    <glyph glyph-name="X" unicode="X" horiz-adv-x="630" 
d="M545 705c19 21 35 39 38 39c2 0 9 -11 13 -25c8 -24 7 -25 -19 -53c-44 -47 -94 -115 -137 -187l-19 -35l15 -15c8 -8 14 -19 14 -23s5 -11 12 -16c30 -25 127 -186 127 -211c0 -5 5 -11 10 -14c5 -2 11 -12 11 -23c0 -10 3 -23 8 -28s6 -11 1 -17c-3 -5 -12 -28 -19 -51
c-18 -58 -20 -60 -45 -67c-22 -5 -25 -4 -83 58c-73 76 -100 114 -135 180c-30 56 -35 56 -61 4c-15 -31 -77 -116 -95 -143c-6 -10 -17 -24 -23 -32c-7 -8 -22 -32 -35 -55c-41 -78 -46 -77 -40 9c5 62 5 63 44 117c21 30 56 75 77 100s38 48 38 51s8 16 18 29l18 24
l-20 29c-32 43 -27 43 -64 92c-17 23 -49 72 -72 108s-61 82 -81 102c-33 31 -37 37 -24 40c7 3 23 10 36 16c33 16 123 15 156 -3c13 -7 43 -33 66 -58c42 -46 105 -134 105 -147s21 -5 30 11c19 35 104 156 135 194z" />
    <glyph glyph-name="Y" unicode="Y" horiz-adv-x="682" 
d="M72 750c5 10 13 11 54 8c51 -5 79 -18 90 -44c4 -8 25 -36 45 -61c52 -64 125 -163 138 -185c23 -43 53 -85 59 -85c8 0 27 34 98 184c24 51 63 111 84 156c7 13 16 24 20 24c3 0 9 -15 12 -33c5 -29 3 -39 -13 -72c-32 -70 -41 -88 -80 -172c-20 -42 -40 -86 -45 -99
s-14 -30 -22 -38c-15 -17 -93 -165 -102 -193c-6 -23 -45 -70 -53 -91c-8 -17 -37 -66 -45 -82c-15 -39 -19 -42 -47 -42h-28l4 37c3 28 14 51 50 112c25 42 48 82 52 87c9 12 16 37 28 45c3 2 13 16 18 29l9 24l-57 57c-31 31 -77 83 -102 115c-50 64 -86 105 -128 164
c-13 20 -41 55 -62 80c-44 51 -51 79 -19 72c21 -4 33 -14 42 3z" />
    <glyph glyph-name="Z" unicode="Z" horiz-adv-x="710" 
d="M541 762c77 14 142 16 159 6c10 -6 -15 -23 -34 -23c-9 0 -18 -4 -20 -8c-2 -3 -11 -7 -19 -7c-21 0 -12 -14 17 -29c14 -7 26 -16 26 -19s-8 -16 -18 -29c-9 -13 -21 -30 -25 -38c-5 -9 -14 -18 -21 -20c-21 -7 -83 -110 -119 -160c-44 -64 -47 -68 -85 -128
c-42 -65 -109 -147 -132 -159c-25 -13 -21 -21 9 -14c14 3 42 6 61 6c20 0 50 5 69 11c81 26 294 7 248 -21c-3 -2 -35 -5 -71 -7c-76 -4 -160 -21 -225 -31c-128 -21 -169 -32 -192 -53c-8 -8 -19 -9 -37 -6c-19 3 -29 1 -38 -7c-10 -9 -15 -10 -31 -2c-13 5 -18 13 -16 21
c5 20 -2 33 -20 33c-9 0 -17 2 -17 5c0 4 23 35 72 99c14 19 25 36 25 38s26 37 59 78c56 71 135 175 207 278c37 53 71 85 92 85c16 0 42 25 33 30c-3 2 -35 -4 -71 -12c-36 -9 -98 -23 -136 -31c-158 -36 -162 -37 -170 -51c-5 -10 -12 -11 -23 -8c-27 8 -30 16 -10 36
c12 13 18 26 18 36c-2 16 0 17 82 28c82 12 197 35 246 51c13 4 61 14 107 22z" />
    <glyph glyph-name="bracketleft" unicode="[" horiz-adv-x="280" 
d="M108 748c-10 -56 29 -651 26 -656c-16 -31 292 -140 37 -110c-25 3 -117 9 -117 45c0 38 -10 162 -10 259c-1 185 -16 391 -8 437c8 42 -3 47 18 63c82 61 342 8 54 -38z" />
    <glyph glyph-name="bracketright" unicode="]" horiz-adv-x="280" 
d="M179 748c10 -56 -29 -651 -26 -656c16 -31 -292 -140 -37 -110c25 3 117 9 117 45c0 38 10 162 10 259c1 185 16 391 8 437c-8 42 3 47 -18 63c-82 61 -342 8 -54 -38z" />
    <glyph glyph-name="a" unicode="a" horiz-adv-x="706" 
d="M383 702c21 10 40 21 41 21c2 0 10 -7 19 -15c13 -12 18 -13 24 -7c13 13 27 10 27 -5c0 -7 6 -17 14 -22c13 -10 13 -10 -4 -44c-10 -19 -17 -38 -17 -43c0 -4 -14 -51 -32 -105c-22 -66 -34 -108 -34 -137c0 -42 -1 -42 20 -44c12 0 28 -5 36 -9c12 -6 22 -3 56 16
c78 42 120 69 120 75c0 9 41 30 44 23c5 -9 -8 -36 -21 -41c-7 -3 -32 -25 -56 -49s-50 -44 -55 -44s-11 -5 -13 -10c-5 -12 -63 -57 -103 -78c-41 -22 -82 -21 -100 2c-13 19 -13 19 -36 7c-13 -6 -29 -11 -35 -11c-7 0 -30 -7 -51 -17c-96 -42 -193 -2 -212 90
c-17 81 10 152 102 257c61 69 88 91 154 124c28 15 57 31 63 36s28 19 49 30zM410 561c0 6 -13 3 -17 -3c-2 -4 -20 -16 -41 -28c-54 -31 -94 -69 -133 -127c-31 -45 -34 -54 -34 -87c0 -28 3 -39 16 -52c14 -14 21 -16 62 -14c49 2 78 15 78 35c0 7 15 71 34 142
c20 71 35 132 35 134z" />
    <glyph glyph-name="b" unicode="b" horiz-adv-x="579" 
d="M169 778c17 21 18 21 79 20l63 -2l5 -20c6 -23 -4 -172 -19 -254c-5 -28 -7 -55 -5 -58c4 -7 51 1 61 10c15 13 124 35 151 32c67 -9 87 -70 45 -134c-31 -46 -120 -135 -154 -151c-15 -8 -34 -20 -42 -26c-43 -36 -209 -110 -249 -110c-8 0 -21 -5 -28 -10
c-8 -6 -20 -8 -34 -5c-18 3 -23 9 -28 29c-10 38 0 121 23 212c13 45 23 88 24 95c1 6 5 16 7 20c10 15 48 165 79 306c3 14 13 34 22 46zM477 419c-26 23 -94 20 -130 -5c-8 -5 -20 -10 -27 -10c-26 0 -47 -29 -61 -83c-7 -28 -19 -71 -24 -93c-6 -22 -9 -43 -8 -44
c5 -4 117 54 148 77c57 41 71 54 92 86c24 37 28 57 10 72z" />
    <glyph glyph-name="c" unicode="c" horiz-adv-x="587" 
d="M446 633c12 3 43 7 70 7c55 0 58 -3 58 -54c0 -24 0 -24 -87 -57c-39 -15 -218 -135 -218 -147c0 -3 -9 -15 -21 -28c-37 -42 -59 -94 -59 -144c0 -63 14 -84 58 -84c47 0 207 47 245 71c13 9 26 10 51 7c19 -3 35 -8 36 -12c3 -9 -89 -78 -130 -98
c-151 -71 -231 -80 -322 -38c-147 69 -157 265 -22 416c31 35 51 48 104 74c36 18 68 32 72 32c3 0 21 7 40 15c31 13 57 21 125 40z" />
    <glyph glyph-name="d" unicode="d" horiz-adv-x="665" 
d="M598 774c10 23 14 26 35 26h24l-5 -43c-3 -38 -30 -129 -56 -190c-4 -11 -12 -39 -16 -62c-10 -49 -24 -106 -44 -177c-20 -75 -21 -83 -17 -83c11 0 44 18 53 28c10 12 12 11 44 0c19 -6 36 -15 37 -19c3 -12 -31 -50 -57 -64c-21 -11 -73 -66 -73 -78
c0 -3 -24 -17 -53 -31c-30 -15 -60 -33 -67 -41c-11 -14 -12 -14 -19 -2c-5 9 -10 11 -16 6c-8 -7 -50 -14 -133 -26c-18 -2 -37 0 -55 7c-15 6 -32 11 -39 11s-33 22 -58 49c-38 40 -47 56 -59 94c-18 55 -18 83 -4 137c21 80 67 144 128 175c42 22 120 51 167 64
c45 11 88 11 190 -6c10 -1 16 3 20 18c10 31 11 33 18 45c4 5 15 40 25 74c10 35 24 73 30 88zM481 424c0 16 -71 8 -120 -13c-67 -28 -96 -49 -141 -105c-33 -40 -40 -54 -43 -82c-3 -38 11 -71 36 -85c9 -5 38 -9 74 -9c51 0 64 3 87 18c36 22 42 32 48 62
c3 13 10 34 15 45c9 21 44 154 44 169z" />
    <glyph glyph-name="e" unicode="e" horiz-adv-x="581" 
d="M371 658c29 14 51 12 59 -4c4 -8 11 -14 15 -14c5 0 20 -11 34 -25c24 -23 42 -27 42 -7c0 5 6 15 13 21c13 12 14 12 28 -1c13 -13 13 -16 7 -47c-6 -28 -16 -43 -58 -87c-28 -29 -61 -61 -74 -70s-31 -23 -41 -32c-10 -10 -53 -41 -97 -69c-56 -36 -83 -50 -92 -47
c-18 5 -34 -8 -34 -28s45 -62 79 -73c20 -6 34 -6 59 0c65 16 150 50 162 65c9 12 17 15 40 13c38 -3 38 -19 1 -53c-15 -14 -28 -28 -28 -31s-20 -14 -43 -25c-24 -11 -63 -29 -86 -39c-88 -40 -224 -13 -292 58c-48 49 -55 69 -55 148c0 64 2 72 23 115
c52 103 143 174 262 207c31 8 65 20 76 25zM450 523c3 8 -25 8 -30 -1c-2 -3 -10 -7 -16 -7c-13 0 -87 -36 -131 -64c-36 -23 -81 -76 -73 -84c4 -4 15 1 30 11c13 10 46 28 72 41c67 33 47 23 104 66c23 18 44 34 44 38z" />
    <glyph glyph-name="f" unicode="f" horiz-adv-x="490" 
d="M350 766c18 2 33 5 36 5s7 -2 9 -6c2 -3 10 -7 18 -7c12 0 69 -51 69 -62c0 -16 -20 -29 -48 -30c-18 -1 -36 -5 -41 -8c-22 -13 -84 -135 -84 -163c0 -3 21 -6 47 -6c40 0 54 -3 81 -18c39 -23 34 -34 -16 -42c-50 -7 -114 -26 -127 -36c-8 -6 -13 -27 -16 -57
c-6 -62 -31 -249 -41 -313c-7 -43 -12 -52 -25 -57c-8 -3 -17 -11 -19 -17c-3 -5 -8 -10 -13 -10s-11 -4 -13 -8c-2 -7 -6 -8 -21 0s-20 8 -28 2c-17 -14 -59 9 -72 40c-14 32 -15 209 -2 226c5 5 7 14 5 17c-3 3 -2 21 2 39c10 42 0 74 -23 71c-19 -2 -26 28 -8 41
c6 5 10 14 10 21c-1 7 4 21 11 31c10 15 16 19 27 16c21 -5 29 5 42 59c26 102 80 179 167 239c27 19 52 30 73 33z" />
    <glyph glyph-name="g" unicode="g" horiz-adv-x="511" 
d="M430 723c8 8 11 6 21 -15c4 -9 17 -20 27 -25c26 -13 29 -48 20 -209c-8 -123 -10 -141 -30 -195c-33 -93 -70 -154 -120 -199c-47 -43 -66 -55 -132 -80c-23 -9 -45 -18 -48 -21c-4 -3 -18 -5 -32 -5c-20 0 -28 3 -41 21c-18 25 -14 44 8 39c18 -5 72 22 151 75
c77 52 100 74 118 116c15 36 14 53 -4 30c-8 -10 -25 -17 -61 -23c-97 -15 -93 -33 -201 11c-47 20 -95 91 -96 145c-3 80 56 179 131 222c18 10 43 26 54 34c46 33 136 66 187 69c22 1 45 7 48 10zM422 500c1 21 -1 39 -5 40c-9 2 -51 -16 -56 -25c-2 -3 -9 -7 -16 -7
c-20 0 -95 -54 -122 -89c-31 -39 -49 -97 -36 -110c23 -23 128 -25 162 -3c10 5 23 8 33 5c14 -3 17 -2 20 11c5 26 18 138 20 178z" />
    <glyph glyph-name="h" unicode="h" horiz-adv-x="502" 
d="M162 774c0 20 9 14 55 -31c65 -64 63 -56 53 -172c-5 -56 -14 -111 -18 -124c-12 -31 -4 -36 30 -16c137 76 179 90 202 64c16 -18 13 -46 -14 -150c-10 -38 -21 -90 -25 -114c-3 -25 -10 -55 -15 -66c-10 -25 -65 -87 -75 -87c-13 0 0 77 25 142c40 107 48 131 48 167
c0 34 1 34 -20 33c-23 -2 -71 -26 -132 -66c-43 -28 -43 -27 -47 -68c-3 -22 -9 -43 -12 -45c-4 -3 -7 -14 -7 -27s-1 -25 -4 -28s-6 -18 -7 -34c0 -16 -11 -48 -23 -71c-11 -23 -22 -47 -24 -53c-3 -10 -12 -13 -45 -13c-40 0 -42 2 -65 29c-21 25 -25 35 -30 81
c-7 75 6 182 46 363c15 66 50 168 83 232c12 23 21 47 21 54z" />
    <glyph glyph-name="i" unicode="i" horiz-adv-x="432" 
d="M204 770c16 16 89 -42 84 -67c-5 -23 -29 -35 -74 -35c-57 0 -65 8 -38 44c11 15 20 33 20 39s4 15 8 19zM94 546c23 28 21 27 39 16c10 -6 18 -6 33 1c18 8 21 8 32 -7c49 -61 63 -109 41 -134c-8 -8 -15 -27 -17 -42c-3 -31 -27 -169 -24 -203c1 -22 4 -27 19 -29
c25 -3 89 12 131 32c39 18 67 18 75 -2c4 -11 -42 -66 -56 -66c-4 0 -24 -11 -44 -24c-87 -57 -233 -48 -277 19s-46 107 -16 253c25 121 36 152 64 186z" />
    <glyph glyph-name="j" unicode="j" horiz-adv-x="401" 
d="M284 795c1 10 18 5 27 -9c5 -8 12 -14 17 -14c4 0 22 -12 39 -27c30 -25 33 -42 10 -42c-5 0 -19 -5 -32 -12c-23 -12 -54 -16 -76 -26c-29 -12 -25 53 6 88c5 6 10 17 10 24s-1 15 -1 18zM298 589c17 13 35 23 40 20c5 -2 13 -4 16 -4s8 -7 10 -17c3 -10 8 -17 13 -17
s12 -7 14 -16c5 -19 -6 -118 -16 -151c-4 -13 -7 -31 -7 -40s-5 -26 -10 -38c-5 -13 -12 -34 -14 -47c-5 -34 -29 -151 -36 -177c-5 -20 -13 -33 -47 -79c-8 -10 -40 -29 -71 -44c-45 -21 -60 -25 -73 -20c-9 3 -26 5 -36 3c-18 -3 -19 -3 -16 10c4 12 1 15 -23 19
c-15 3 -30 7 -32 10c-4 7 45 49 58 49c16 0 51 30 64 56c11 21 31 113 45 208c13 83 56 223 75 238c8 7 29 24 46 37z" />
    <glyph glyph-name="k" unicode="k" horiz-adv-x="578" 
d="M231 778c10 18 19 20 25 5c2 -5 11 -14 20 -18c25 -11 39 -42 39 -84c0 -45 -17 -162 -27 -190c-19 -49 -40 -149 -32 -149c0 0 43 41 94 91s105 98 120 107c14 9 26 22 26 27c0 10 24 38 36 26c5 -5 14 -8 20 -8c7 0 15 -8 18 -16c3 -13 -4 -23 -50 -64
c-64 -58 -137 -137 -203 -188c-23 -18 -42 -37 -41 -41s19 -19 39 -33c95 -67 186 -155 173 -169c-5 -5 -62 27 -143 82c-81 56 -114 67 -129 44c-5 -8 -14 -31 -18 -51c-5 -20 -13 -40 -18 -44c-8 -6 -16 -32 -34 -94c-2 -8 -43 -17 -80 -17c-33 -1 -56 57 -56 140
c0 40 13 89 104 381c15 48 31 100 35 118c13 53 22 73 48 101c15 15 30 35 34 44z" />
    <glyph glyph-name="l" unicode="l" horiz-adv-x="280" 
d="M190 791c0 5 4 9 7 9c4 0 8 -4 8 -7c0 -4 5 -10 11 -12c15 -6 44 -37 44 -49c0 -5 4 -15 9 -22c12 -20 -3 -150 -29 -254c-12 -46 -25 -102 -28 -125c-4 -23 -12 -56 -17 -76c-5 -19 -19 -79 -29 -135s-21 -106 -24 -111c-6 -12 -35 -15 -47 -6c-5 4 -17 4 -27 2
c-15 -4 -22 -1 -38 18c-17 20 -20 30 -20 66c0 38 12 105 34 197c44 180 83 347 92 393c8 42 21 72 41 90c8 7 13 17 13 22z" />
    <glyph glyph-name="m" unicode="m" horiz-adv-x="637" 
d="M148 625c34 36 45 42 45 29c0 -3 6 -7 13 -7c16 0 28 -18 33 -58c3 -18 6 -32 9 -32s72.46 82.8867 83 87c9.01465 3.51758 -7.23706 -67.2766 -13 -74c-12 -14 -65.108 -76.7909 -73 -81c-15 -8 -30 -52 -48 -150c-6 -31 -13 -59 -16 -63s-9 -21 -14 -39
s-15 -42 -21 -55s-10 -36 -10 -51c0 -26 -1 -27 -22 -24c-12 1 -26 0 -34 -3c-9 -5 -18 -4 -30 2c-28 15 -40 46 -40 104c0 44 4 68 35 160c20 59 43 132 52 162c14 46 22 62 51 93zM367 561c0 -11 4 -47 15 -30c5 6 6 4 4 -7c-5 -22 7 -27 25 -10c29 26 99 62 128 65
c24 3 32 2 39 -9c10 -16 18 -18 18 -3c0 17 45 13 31 -11c-3 -5 -7 -34 -7 -64c-1 -36 -6 -61 -13 -71c-6 -10 -11 -24 -11 -33c0 -8 -3 -19 -6 -22c-3 -4 -18 -40 -31 -81c-23 -72 -51 -117 -71 -117c-5 0 -16 -11 -24 -24c-15 -24 -34 -28 -21 -5c9 19 14 66 25 85
c18 32 60 169 64 212c2 26 0 48 -5 57l-7 15l-41 -22c-21 -12 -51 -28 -67 -37l-28 -16l-13 -72c-17 -94 -32 -145 -45 -149c-6 -3 -17 -10 -24 -15c-6 -5 -13 -9 -15 -8c-3 3 28 139 37 160c2 5 6 20 6 31c6 84 9 141 9 154c0 39.7253 -21 29.1155 -21 36
c0 168.024 49 17.2459 49 -9z" />
    <glyph glyph-name="n" unicode="n" horiz-adv-x="469" 
d="M278 585c17 7 36 14 43 14c8 0 15 3 18 6c2 4 17.9321 9.41396 35 12c87.6637 13.2824 54.7891 10.376 72 3c10 -4 17 -112 7 -112c-5.21146 -38.5706 -92.2385 -299.868 -103 -330c-10 -26 -39 -54 -49 -48c-8 5 1 38 32 120c60 163 82 280 56 306c-10 10 -18 8 -80 -12
c-38 -12 -74 -28 -80 -34c-5 -7 -14 -34 -18 -61c-8 -51 -25 -120 -34 -163c-3 -13 -9 -36 -13 -49c-32 -98 -39 -115 -44 -121c-3 -3 -7 -12 -7 -19c0 -25.7662 -31.2707 6.15635 -47 -8c-33 -31 -49 -9 -55 78c-5 69 3 115 31 209c10 33 26 97 38 143c20 85 30 106 59 133
c107.558 107.558 21.5475 -119.969 139 -67z" />
    <glyph glyph-name="o" unicode="o" horiz-adv-x="604" 
d="M197 572c72.8246 101.015 74.8975 -12.8933 142 22c20 10 101 26 140 26s76 -36 99 -94c33 -82 20 -165 -36 -226c-16 -18 -31 -38 -33 -47c-3 -8 -11 -19 -19 -23c-18.1991 -9.09956 -114.228 -181.481 -177 -198c-9 -2 -19 -9 -24 -14c-12 -14 -73 -31 -114 -31
c-94 0 -165 92 -165 212c0 55 10 91 41 153c34 69 40 77 78 128c20 25 50 66 68 92zM440 543c-13 8 -28 14 -34 14c-1.85929 0 -52 -26 -52 -26s-34.15 -27.7269 -44 -30c-18 -4 -40 -39 -56 -93c-5 -15 -13 -33 -18 -39c-30 -34 -58 -178 -44 -227c8 -29 30 -53 55 -59
c20 -5 84 24 138 63c61 43 126 169 126 244c0 52 -38 133 -71 153z" />
    <glyph glyph-name="p" unicode="p" horiz-adv-x="539" 
d="M193 656c13 8 15 7 46 -23c28 -28 29 -29 89 -30c82 -3 111 -10 145 -33c56 -39 73 -96 45 -160c-14 -33 -80 -110 -95 -110c-5 0 -17 -11 -27 -24c-14 -19 -26 -26 -54 -31c-20 -5 -40 -12 -45 -16s-20 -5 -33 -3c-31 5 -46 -11 -46 -47c0 -26 -25 -133 -34 -146
c-3 -3 -7 -19 -9 -33s-10 -37 -16 -50l-12 -25h-58c-47 0 -58 3 -58 11c0 5 -5 10 -10 10c-8 0 -11 7 -11 26c0 28 25 172 31 182c3 5 24 128 45 275c3 23 10 53 14 66c3 13 7 31 7 41c0 20 15 39 47 61c13 9 25 25 28 35c2 10 7 21 11 24zM379 535c-23 13 -92 18 -107 8
c-9 -5 -12 -17 -12 -38c0 -33 -9 -107 -22 -186c-4 -26 -7 -49 -5 -50c2 -2 12 -2 21 2c9 3 30 11 47 16c40 12 108 76 126 116c16 37 17 65 3 77c-5 5 -10 13 -10 16c0 9 -20 28 -41 39z" />
    <glyph glyph-name="q" unicode="q" horiz-adv-x="507" 
d="M398 647c12 3 25 4 30 3s14 -3 19 -3s19 -8 31 -18c20 -17 21 -22 21 -60s-29 -161 -50 -207c-10 -23 -25 -88 -33 -114c-7 -28 -31 -117 -44 -140c-5 -11 -14 -31 -18 -44c-7 -19 -35 -89 -52 -126c-2 -7 -7 -13 -12 -13c-20 0 16 177 54 266c6 14 10 27 8 29
s-18 -4 -36 -14s-56 -22 -92 -29c-57 -10 -65 -9 -102 1c-42 13 -83 42 -99 73c-5 10 -11 41 -12 67c-3 43 -1 53 19 93c26 53 72 101 139 145c67 43 105 58 229 91zM442 507c3 20 5 36 2 36c-13 -1 -57 -20 -75 -33c-11 -8 -25 -15 -30 -15c-10 0 -130 -127 -150 -159
c-19 -31 -20 -52 -4 -65c15 -13 112 -11 154 3c35 10 51 34 59 85c3 15 8 32 11 35c8 11 26 73 33 113z" />
    <glyph glyph-name="r" unicode="r" horiz-adv-x="521" 
d="M137 612c40 44 45 48 52 31c2 -5 9 -9 14 -7c10 4 36 -33 36 -52c0 -25 19 -29 52 -10c48 26 129 51 157 47c31 -4 39 -11 55 -45c12 -24 13 -29 3 -38c-0.0316069 -0.0316069 -60.9996 29.9996 -61 30c-13 16 -19 18 -41 14c-38 -7 -98 -41 -136 -77
c-28 -27 -36 -39 -44 -75c-6 -23 -19 -69 -29 -101c-10 -31 -22 -96 -28 -144c-10 -77 -18 -114 -28 -114c-1 0 -11 3 -21 7c-13 5 -21 4 -31 -2c-20 -12 -38 1 -41 29c-2 18 -5 21 -15 18c-11 -3 -14 0 -18 28c-12 80 12 243 46 312c3 8 14 36 24 62c12 33 29 59 54 87z
" />
    <glyph glyph-name="s" unicode="s" horiz-adv-x="538" 
d="M514 660c46.5552 -19.9522 -13.2097 -50.0063 -80 -52c-105 -3 -118.447 -5.19876 -162 -30c-72 -41 19 -200 65 -229c467.093 -292.923 -194 -278 -194 -278s-29.1467 17.729 -35 21c-61.0185 34.0986 -56.5294 47.6617 -84 82l-14 18l18 16
c29.5633 26.607 31.7641 82.4718 70 6c24.6526 -51.653 178 -170.988 178 -35c0 37 -2 48 -16 68c-20 27 -112.386 126.508 -138 147c-49.5244 39.6195 -55 50.9414 -55 137c0 29.0645 137.748 86.1046 166 98c47.5054 20.0023 207.421 66.0375 281 31z" />
    <glyph glyph-name="t" unicode="t" horiz-adv-x="592" 
d="M377 761c78.1214 -75.6341 -86.02 -265.261 67 -236c51.94 9.93203 177.251 6.50038 130 -7c-7 -2 -21 -8 -33 -13c-11 -5 -46 -14 -77 -21c-74 -15 -102 -29 -110 -55c-19.2149 -73.657 -26.8385 -119.824 -57 -206c-76.9133 -215.357 178 -142.167 178 -195
c0 -3 -5 -6 -10 -6s-24 -6 -42 -14s-34 -13 -37 -11c-3 1 -46 5 -95 5c-102 2 -125 11 -163 57c-22 28 -40 88 -32 108c17.6343 35.2687 15.5591 97.2102 29 145c16 56 21.9848 99.5515 12 99c-44.8326 -2.47648 -93.5993 -13.9512 -112 -24
c-38.8412 -21.2117 23.3801 108.179 66 89c16 -8 76 -4 84 6c3 5 20 46 39 92c48.6576 119.083 131.98 217.032 163 187z" />
    <glyph glyph-name="u" unicode="u" horiz-adv-x="518" 
d="M210 729c0 17 14 9 14 -9c0 -14 3 -17 16 -17c30 0 41 -29 36 -91c-5 -72 -27 -97 -39 -163c-4 -26 -12 -51 -15 -56s-5 -13 -2 -17s-1 -13 -6 -19c-6 -7 -12 -32 -13 -62c-5 -83 6 -89 118 -66l59 12l17 49c36 100 57 190 61 264c2 35 6 73 9 86c7 31 28 37 33 9
c3 -10 7 -24 10 -29s3 -20 0 -30s-4 -38 -3 -59c2 -44 -7 -116 -18 -136c-4 -8 -6 -15 -4 -17s-1 -13 -7 -25c-17 -31 -37 -88 -37 -107c0 -8 -5 -17 -10 -19c-5 -3 -11 -11 -11 -19s-8 -16 -23 -22c-13 -5 -26 -14 -29 -18c-2 -3 -11 -7 -19 -7s-28 -6 -43 -11
c-15 -6 -54 -13 -85 -14c-61 -3 -114 11 -151 40c-26 20 -53 83 -57 133c-8 84 24 219 79 331c18 36 22 39 52 47c36 8 68 28 68 42z" />
    <glyph glyph-name="v" unicode="v" horiz-adv-x="494" 
d="M135 714c5 12 4 12 30 -1c34 -17 38 -25 27 -53c-13 -30 -24 -411 -13 -418c6 -3 50 52 50 62c0 3 38 65 68 111c11 19 21 45 36 62c11 13 77 119 77 125c0 2 39 66 47 79c1 1 7 -3 15 -10c17 -15 19 -53 4 -66c-5 -5 -11 -13 -11 -18c0 -13 -26 -65 -64 -127
c-17 -28 -51 -88 -74 -132s-46 -86 -49 -91s-13 -23 -21 -38s-24 -36 -35 -48c-10 -11 -21 -27 -22 -35s-6 -13 -14 -12c-6 1 -12 -2 -12 -5s-6 -9 -14 -11c-8 -3 -23 -13 -32 -23c-10 -10 -18 -14 -18 -11c-3 17 2 34 -20 34c-21 0 -44 34 -58 83c-36 125 -27 369 17 460
c9 20 26 37 48 52c19 12 36 26 38 31z" />
    <glyph glyph-name="w" unicode="w" horiz-adv-x="726" 
d="M135 717c0 4 2 7 3 7c3 0 14 -14 5 -14c-4 0 -8 4 -8 7zM538 226c0 -3 -48 -64 -48 -68c0 -8 -57 -60 -61 -56c-2 1 3 18 9 38c12 35 11 36 -7 84c-10 27 -18 54 -18 59c0 14 -28 79 -34 79c-4 0 -10 -11 -31 -62c-4 -10 -18 -36 -32 -59c-36 -60 -50 -98 -57 -146
c-1 -9 -8 -14 -19 -14c-8 0 -20 -6 -25 -13c-9 -13 -11 -13 -37 -1c-31 15 -64 60 -114 160c-3 7 -9 38 -12 69c-8 80 -26 221 -34 263c-13 66 -11 78 21 97c15 10 34 27 42 39c7 12 17 22 22 22c20 0 77 -75 83 -108c1 -11 10 -38 18 -59c13 -33 37 -144 53 -238
c2 -15 8 -27 11 -29c6 -5 46 76 48 79c26 41 56 127 51 146c-2 8 0 14 3 14c12 0 49 -45 64 -76c8 -18 22 -45 31 -62c10 -17 18 -34 18 -39c0 -4 4 -13 9 -21c10 -13 13 -10 36 42c14 31 28 61 31 67c12 22 97 227 102 245c5 22 6 22 36 0c23 -18 23 -20 20 -53
c-3 -20 -7 -38 -10 -43c-3 -4 -11 -21 -15 -36c-10 -34 -12 -34 -63 -144c-23 -49 -42 -92 -42 -95c0 -4 -49 -78 -49 -81z" />
    <glyph glyph-name="x" unicode="x" horiz-adv-x="723" 
d="M249 724c16 16 21 17 39 11c29 -10 34 -14 44 -44c18 -47 34 -77 56 -130c11 -26 23 -50 27 -51c10 -3 217 203 217 216c0 14 6 14 23 1c8 -5 17 -7 22 -6c10 4 38 -29 38 -44c0 -14 -20 -44 -30 -44s-234 -225 -234 -235s27 -48 24 -60c-2 -5 -1 -11 3 -13
c12 -8 64 -119 64 -137c0 -9 3 -27 6 -40c5 -19 5 -23 -7 -29c-8 -3 -12 -11 -10 -14s-7 -8 -21 -11c-13 -2 -27 -7 -29 -10c-18 -29 -117 77 -147 156c-4 10 -11 18 -14 18s-56 -50 -118 -111s-117 -111 -124 -111c-6 0 -24 -5 -39 -10c-14 -5 -27 -7 -29 -4
c-3 5 39 93 70 144c13 21 104 112 169 171c21 19 28 30 25 38c-32 79 -94 275 -94 296c0 6 5 11 12 11c11 0 21 6 57 42z" />
    <glyph glyph-name="y" unicode="y" horiz-adv-x="636" 
d="M32 549c27 33 48 36 86 16c20 -11 102 -91 102 -100c0 -10 121 -182 127 -182c4 0 26 26 48 59c74 108 156 211 177 224c15 9 53 -17 56 -38c2 -15 -9 -32 -45 -74c-42 -50 -60 -78 -99 -147c-7 -13 -27 -43 -44 -66c-42 -58 -42 -58 -32 -70c8 -10 4 -20 -10 -20
c-5 0 -7 -4 -6 -9c0 -5 -5 -9 -13 -9s-13 -4 -13 -8c0 -5 -8 -15 -16 -23c-9 -8 -44 -52 -77 -96l-61 -81h-45c-39 0 -44 3 -44 13c0 15 41 88 67 116s64 78 64 83c0 2 -8 12 -20 21c-20 18 -98 128 -98 140c0 3 -10 21 -23 40c-54 83 -101 161 -103 171c0 7 9 24 22 40z
" />
    <glyph glyph-name="z" unicode="z" horiz-adv-x="621" 
d="M289 584c109 18 207 18 265 3c24 -6 44 -15 44 -18s-4 -5 -7 -5c-4 0 -8 -6 -11 -12c-2 -7 -47 -54 -99 -105c-51 -51 -90 -94 -88 -96c3 -3 44 -1 93 4s93 7 100 5c6 -2 17 -6 23 -8c17 -5 -36 -52 -59 -52c-10 0 -31 -5 -46 -10s-60 -11 -100 -14
c-102 -6 -121 -13 -161 -53c-18 -19 -34 -36 -34 -37c0 -2 304 2 343 -19c13 -6 11 -8 -9 -27c-19 -17 -28 -20 -58 -20c-141 0 -333 -10 -356 -18c-8 -3 -18 -1 -20 3c-3 4 -14 7 -27 7s-24 3 -27 5c-7 7 19 52 46 80c14 14 25 29 25 33c0 3 3 7 7 7s4 8 -1 18
c-6 13 -6 21 1 34c5 9 6 20 4 23c-8 13 18 21 63 17c51 -4 49 -5 134 90l48 52l-46 -6c-26 -3 -55 -8 -67 -11c-26 -8 -22 -8 -119 -14c-42 -3 -88 -3 -103 -1c-23 3 -28 6 -33 24c-3 12 -2 24 1 27c4 4 4 10 -1 16c-5 7 -5 13 3 22c5 6 12 18 13 26c3 17 51 29 66 16
c11 -10 67 -6 193 14z" />
    <glyph glyph-name="braceleft" unicode="{" horiz-adv-x="311" 
d="M213 774c6 21 10 26 27 26c22 0 25 -4 43 -54c17 -50 24 -121 19 -172c-6 -54 -32 -162 -50 -213l-14 -40l15 -53c21 -72 15 -112 -25 -191c-17 -33 -30 -61 -30 -64s11 -10 25 -15c21 -8 23 -13 20 -26c-2 -9 -4 -23 -4 -31c0 -15 -3 -16 -41 -16c-28 0 -43 4 -49 11
c-5 7 -10 36 -10 85v74l30 65c39 82 28 60 5 110c-13 28 -22 29 -53 6c-13 -10 -27 -18 -32 -18c-4 0 -13 -7 -18 -15c-16 -24 -32 -11 -47 41c-8 26 -14 50 -14 54c0 3 33 14 74 24l75 18l9 31c5 18 13 37 16 45c15 33 28 169 25 230c-3 38 -1 72 4 88z" />
    <glyph glyph-name="bar" unicode="|" horiz-adv-x="280" 
d="M120 731c-10 -56 -14 -400 -16 -406c-14 -31 6 -341 -8 -325c-17 20 -42 -9 -42 27c0 38 -10 162 -10 259c-1 185 -16 391 -8 437c8 42 10 29 30 46c63 55 54 -38 54 -38z" />
    <glyph glyph-name="braceright" unicode="}" horiz-adv-x="544" 
d="M361 771l-4 29h29c37 0 67 -14 94 -45c50 -58 44 -143 -20 -273c-16 -31 -30 -64 -30 -74c-1 -20 1 -22 45 -41c31 -14 61 -57 61 -89c0 -28 -23 -54 -49 -54c-38 0 -131 -101 -131 -141c0 -13 -51 -91 -79 -122c-28 -32 -46 -36 -157 -36c-84 0 -106 2 -109 10
c-6 17 10 39 28 39c24 0 126 44 176 77c45 29 53 39 96 120c14 27 36 63 49 79l24 29l-11 25c-10 20 -11 38 -8 89c4 70 22 130 64 207c13 26 24 55 24 67c0 20 -2 21 -33 23s-34 5 -44 27c-6 13 -13 37 -15 54z" />
    <glyph glyph-name="asciitilde" unicode="~" horiz-adv-x="833" 
d="M767 536c20 3 37 6 39 6c9 1 19 -18 19 -39c0 -20 -4 -26 -37 -47c-20 -13 -57 -44 -82 -68c-89 -87 -183 -92 -310 -18c-46 27 -108 48 -139 48c-28 0 -110 -54 -140 -93c-15 -20 -33 -44 -41 -54c-17 -22 -38 -25 -45 -7c-4 13 -12 107 -19 117c-18 21 65 108 124 129
c19 7 40 17 46 20c20 10 103 8 145 -5c21 -6 62 -22 90 -36c38 -18 63 -25 98 -28c51 -3 55 -2 154 42c33 15 78 30 98 33z" />
    <glyph glyph-name="cent" unicode="&#xa2;" horiz-adv-x="620" 
d="M395 769c4 11 75 7 126 -6c38 -10 64 -45 80 -107c15 -60 14 -84 -4 -104c-21 -23 -69 -23 -84 0c-5 9 -24 21 -40 26l-30 9l-23 -26c-32 -37 -43 -71 -72 -110c-28 -38 -69 -108 -69 -118c0 -11 141 -1 170 13c31 15 45 9 45 -17c0 -29 -25 -55 -69 -70
c-52 -19 -85 -35 -152 -40c-40 -3 -57 -8 -68 -18c-9 -8 -17 -18 -17 -21s-10 -22 -23 -42c-22 -34 -61 -126 -73 -175c-6 -27 -26 -31 -32 -7c-5 23 2 105 15 151c14 47 12 67 26 112l10 32l-28 30c-38 40 -53 72 -66 141c-8 45 -8 65 -3 88c14 54 36 94 66 120
c43 38 121 81 157 88c50 10 81 26 131 37c13 3 25 9 27 14zM230 533c0 20 -100 -43 -121 -76c-13 -20 -3 -58 20 -80l17 -16l11 17c12 17 31 81 43 97c8 10 30 52 30 58z" />
    <glyph glyph-name="sterling" unicode="&#xa3;" horiz-adv-x="759" 
d="M322 850c396 -230 74 -214 51 -148c-68 198 -123 -322 -147 -311l98 10c32 4 240 16 243 13c1 -1 0 -9 -3 -19c-3 -12 -10 -20 -23 -23c-10 -3 -27 -11 -37 -20c-11 -11 -33 -20 -59 -25c-53 -10 -67 -16 -122 -23c-33 -3 -42 -9 -57 -26c-10 -12 -18 -26 -18 -31
s-6 -22 -14 -37c-27 -53 -35 -51 161 -46c206 5 265 13 293 36c25 21 36 21 49 1c20 -33 18 -49 -4 -76c-50 -61 -101 -71 -374 -71c-210 0 -212 0 -234 -16c-18 -13 -26 -15 -45 -10c-20 5 -23 8 -21 25c2 15 0 18 -10 16c-10 -1 -13 3 -13 23c0 13 -2 28 -5 32
c-6 9 2 56 22 130l14 56l-17 18c-31 33 -55 97 -29 78c5 -3 23 -5 42 -5h35l12 48c21 81 33 148 41 243c4 50 166 161 171 158z" />
    <glyph glyph-name="section" unicode="&#xa7;" 
 />
    <glyph glyph-name="questiondown" unicode="&#xbf;" horiz-adv-x="684" 
d="M520 730c6 10 12 10 50 -8c37 -17 106 -65 106 -75s-43 -29 -51 -22c-4 3 -24 9 -42 11c-28 4 -36 9 -46 27c-15 25 -23 57 -17 67zM209 272c26 2 48 20 76 21c12 0 25 3 27 7c2 3 16 10 31 14c31 8 38 18 44 64c8 52 25 110 43 148c9 20 18 40 20 47c5 15 24 16 29 1
c3 -6 17 -11 37 -14c34 -4 43 -12 75 -57c19 -26 17 -32 -16 -88c-13 -21 -24 -46 -24 -52s-3 -15 -7 -19c-3 -3 -12 -33 -18 -65c-9 -48 -9 -64 -2 -85c15 -47 -6 -64 -52 -42c-34 18 -60 25 -92 42c-19 9 -23 9 -43 -1c-12 -6 -25 -11 -29 -11c-16 0 -75 -32 -104 -57
c-66 -56 -77 -69 -72 -92c8 -41 13 -46 57 -46c49 0 83 10 147 41c80 40 121 64 129 74c10 15 12 13 37 -10c30 -28 25 -47 -26 -89c-88 -75 -86 -75 -223 -77c-79 -1 -123 0 -128 5c-4 4 -11 8 -16 8c-20 0 -75 51 -87 79c-13 32 -16 85 -6 112c9 23 70 83 100 97
c13 6 27 15 32 21c5 5 15 10 22 10s15 4 17 7c2 4 12 7 22 7z" />
    <glyph glyph-name="Agrave" unicode="&#xc0;" 
 />
    <glyph glyph-name="Aacute" unicode="&#xc1;" horiz-adv-x="759" 
d="M607 998c-16 -16 -86 -139 -61 -134c23 5 185 81 185 126c0 57 -56 76 -92 50c-25 -19 -17 -27 -32 -42zM253 604c0 4 48 64 48 70c0 3 6 12 13 18c8 7 18 22 23 34c5 13 18 33 30 48l20 26h93c83 0 93 -2 96 -12c2 -7 8 -20 13 -30c10 -20 9 -42 -8 -68
c-8 -12 -12 -36 -12 -86c0 -39 -4 -76 -7 -81c-10 -19 19 -68 35 -43c2 4 11 7 19 7s25 6 35 11c18 9 20 9 23 -1c6 -17 -28 -75 -71 -119c-15 -15 -16 -45 -2 -54c3 -2 6 -11 6 -20c0 -22 14 -19 14 -39c0 -7 2 -19 5 -26c23 -47 42 -74 73 -107c10 -11 28 -33 38 -48
c15 -23 17 -30 12 -50c-5 -15 -12 -23 -22 -24c-8 -1 -16 -7 -16 -13c0 -8 -4 -10 -22 -7c-13 3 -29 5 -36 5s-16 8 -20 18c-4 9 -13 16 -18 16c-11 0 -62 43 -74 63c-42 67 -57 98 -67 124c-5 18 -14 33 -18 34c-8 3 -120 -114 -146 -153c-16 -24 -17 -29 -9 -55
c9 -27 10 -28 -11 -49l-21 -21l-40 9c-21 5 -41 12 -43 15s-12 5 -22 5c-40 0 -72 16 -103 47c-18 18 -30 38 -30 47c0 8 -6 20 -11 25c-18 15 -11 40 18 75c15 18 27 36 27 39c0 4 75 155 98 197c3 6 15 33 27 59s30 62 42 79c11 17 21 33 21 35zM413 460
c-1 8 -6 62 -15 62c-18 0 -65 -142 -82 -178c-8 -16 -15 -33 -15 -36c0 -8 -28 -29 -28 -37c0 -15 16 -5 125 91c21 19 23 23 19 54c-2 18 -4 39 -4 44z" />
    <glyph glyph-name="Acircumflex" unicode="&#xc2;" 
 />
    <glyph glyph-name="Adieresis" unicode="&#xc4;" 
 />
    <glyph glyph-name="Ccedilla" unicode="&#xc7;" 
 />
    <glyph glyph-name="Egrave" unicode="&#xc8;" 
 />
    <glyph glyph-name="Eacute" unicode="&#xc9;" horiz-adv-x="821" 
d="M607 955c-16 -16 -86 -139 -61 -134c23 5 185 81 185 126c0 57 -56 76 -92 50c-25 -19 -17 -27 -32 -42zM39 771l-4 29h368c367 0 389 -2 404 -24c17 -24 -3 -52 -36 -52c-7 0 -15 -4 -16 -7s-23 -3 -54 0c-28 3 -83 9 -121 13c-87 9 -207 12 -217 6
c-8 -5 -7 -12 13 -124c7 -40 12 -96 12 -158c0 -13 2 -26 4 -29s19 -1 39 4c36 11 85 8 93 -5c5 -8 -24 -49 -31 -44c-3 1 -30 -5 -60 -13l-55 -15l-2 -48c0 -26 -5 -53 -9 -60c-3 -7 -5 -24 -2 -39c2 -15 0 -35 -4 -47c-4 -11 -11 -45 -14 -76c-3 -30 -10 -57 -13 -62
c-3 -4 -8 -21 -11 -38c-3 -23 -2 -31 7 -34c10 -4 134 5 242 19c119 15 137 15 151 2c7 -6 13 -19 13 -28v-16l-349 1l-349 3l-14 27c-11 23 -14 43 -14 105c0 87 14 291 24 352c21 126 23 218 5 358z" />
    <glyph glyph-name="Ecircumflex" unicode="&#xca;" 
 />
    <glyph glyph-name="Edieresis" unicode="&#xcb;" 
 />
    <glyph glyph-name="Icircumflex" unicode="&#xce;" 
 />
    <glyph glyph-name="Idieresis" unicode="&#xcf;" 
 />
    <glyph glyph-name="Ntilde" unicode="&#xd1;" horiz-adv-x="713" 
d="M274 784l-14 16h214c195 0 214 -1 222 -12c15 -20 11 -42 -12 -66l-23 -23l-59 2c-92 3 -183 12 -193 18c-5 3 -22 7 -40 9c-39 3 -79 20 -79 31c0 5 -8 16 -16 25zM168 724c31 7 31 6 62 -4c15 -5 34 -10 40 -10c15 0 76 -33 86 -47c5 -5 10 -23 13 -41
c4 -29 9 -43 26 -72c5 -10 19 -38 40 -83c6 -13 16 -30 21 -37s18 -36 28 -63c21 -62 33 -64 46 -8c13 54 24 93 31 111c6 18 27 110 35 126c4 8 9 25 9 37c1 29 14 41 32 30c8 -4 18 -9 23 -9c17 0 39 -38 39 -66c0 -14 -5 -39 -13 -57c-19 -46 -56 -170 -56 -184
c0 -6 -5 -24 -13 -41c-7 -17 -18 -55 -25 -86c-6 -31 -15 -61 -18 -69c-14 -33 -19 -62 -16 -68c2 -3 0 -10 -4 -15c-5 -5 -9 -26 -12 -46c-5 -47 -19 -64 -55 -64c-24 0 -28 1 -28 16c0 11 -6 21 -17 26c-10 5 -21 19 -26 32c-5 14 -13 25 -17 25c-3 0 -5 5 -3 12
c6 15 -8 60 -41 130c-5 11 -10 26 -10 33c0 13 -16 54 -42 105c-7 15 -13 30 -13 33s-8 23 -17 43s-19 45 -21 56c-5 21 -18 26 -18 5c0 -8 -3 -20 -6 -27c-7 -13 -19 -65 -26 -111c-3 -16 -8 -31 -11 -33s-5 -9 -5 -16c0 -13 -23 -75 -36 -100c-5 -8 -5 -17 0 -22
c10 -11 -10 -53 -25 -53c-5 0 -9 -5 -9 -10s-6 -13 -14 -17c-24 -13 -50 -6 -72 22c-25 31 -27 74 -6 135c16 47 24 79 36 125c10 38 32 146 45 211c5 28 17 72 26 97c15 39 19 46 37 49z" />
    <glyph glyph-name="Oacute" unicode="&#xd3;" horiz-adv-x="817" 
d="M607 934c-16 -16 -86 -139 -61 -134c23 5 185 81 185 126c0 57 -56 76 -92 50c-25 -19 -17 -27 -32 -42zM343 788c38 17 61 15 82 -8c13 -14 29 -22 50 -25c110 -17 242 -103 286 -188c8 -15 22 -36 31 -49c15 -20 17 -30 17 -84c0 -38 -3 -72 -9 -90
c-6 -15 -13 -34 -15 -44s-19 -34 -39 -54c-19 -20 -35 -41 -35 -46s-11 -18 -24 -31c-13 -12 -24 -26 -24 -29c0 -4 -6 -7 -11 -7c-6 0 -12 -5 -15 -11c-4 -12 -90 -79 -101 -79c-4 0 -20 -8 -34 -18c-48 -33 -169 -42 -273 -20c-62 13 -150 80 -194 145l-25 38v340l28 41
c37 54 108 118 160 141c14 7 27 15 30 19c3 5 42 26 115 59zM506 622c-63 29 -97 16 -189 -68c-44 -40 -79 -88 -92 -122c-28 -78 -35 -103 -35 -133c0 -58 15 -94 56 -143c44 -53 69 -71 107 -71s120 40 181 89c28 23 71 54 94 71c28 19 46 36 50 49c4 11 15 24 24 27
c18 7 20 24 17 73c-2 25 -40 101 -50 101c-4 0 -27 18 -50 41c-48 45 -82 71 -113 86z" />
    <glyph glyph-name="Ocircumflex" unicode="&#xd4;" 
 />
    <glyph glyph-name="Odieresis" unicode="&#xd6;" 
 />
    <glyph glyph-name="Ugrave" unicode="&#xd9;" 
 />
    <glyph glyph-name="Uacute" unicode="&#xda;" horiz-adv-x="804" 
d="M607 934c-16 -16 -86 -139 -61 -134c23 5 185 81 185 126c0 57 -56 76 -92 50c-25 -19 -17 -27 -32 -42zM124 659c6 6 13 5 29 -3c17 -8 24 -9 34 -3s20 5 53 -12c36 -18 41 -24 44 -44c2 -13 -1 -36 -6 -54s-9 -44 -9 -59s-5 -36 -10 -46c-18 -35 -19 -53 -4 -66
c16 -14 18 -43 3 -48c-24 -10 -35 -121 -18 -197c11 -54 21 -76 54 -112c40 -44 63 -37 176 52c195.529 155.074 115.405 206.855 205 396c28 59 38 91 38 124c0 43 6 51 39 48c32 -4 47 -27 42 -61c-0.0284758 -0.18794 -161.172 -313.511 -148 -328
c35 -38 18 -70 -94 -190c-56 -60 -87 -87 -118 -104c-42 -23 -46 -24 -143 -26l-99 -2l-50 32c-61 38 -86 72 -117 158c-30 83 -13 264 31 343c10 18 18 38 18 46c0 7 6 20 11 29c6 9 12 32 15 52c2 20 7 38 10 40s6 9 6 16c0 6 4 15 8 19z" />
    <glyph glyph-name="Ucircumflex" unicode="&#xdb;" 
 />
    <glyph glyph-name="Udieresis" unicode="&#xdc;" 
 />
    <glyph glyph-name="agrave" unicode="&#xe0;" 
 />
    <glyph glyph-name="aacute" unicode="&#xe1;" horiz-adv-x="706" 
d="M607 934c-16 -16 -86 -139 -61 -134c23 5 185 81 185 126c0 57 -56 76 -92 50c-25 -19 -17 -27 -32 -42zM383 702c21 10 40 21 41 21c2 0 10 -7 19 -15c13 -12 18 -13 24 -7c13 13 27 10 27 -5c0 -7 6 -17 14 -22c13 -10 13 -10 -4 -44c-10 -19 -17 -38 -17 -43
c0 -4 -14 -51 -32 -105c-22 -66 -34 -108 -34 -137c0 -42 -1 -42 20 -44c12 0 28 -5 36 -9c12 -6 22 -3 56 16c78 42 120 69 120 75c0 9 41 30 44 23c5 -9 -8 -36 -21 -41c-7 -3 -32 -25 -56 -49s-50 -44 -55 -44s-11 -5 -13 -10c-5 -12 -63 -57 -103 -78
c-41 -22 -82 -21 -100 2c-13 19 -13 19 -36 7c-13 -6 -29 -11 -35 -11c-7 0 -30 -7 -51 -17c-96 -42 -193 -2 -212 90c-17 81 10 152 102 257c61 69 88 91 154 124c28 15 57 31 63 36s28 19 49 30zM410 561c0 6 -13 3 -17 -3c-2 -4 -20 -16 -41 -28
c-54 -31 -94 -69 -133 -127c-31 -45 -34 -54 -34 -87c0 -28 3 -39 16 -52c14 -14 21 -16 62 -14c49 2 78 15 78 35c0 7 15 71 34 142c20 71 35 132 35 134z" />
    <glyph glyph-name="acircumflex" unicode="&#xe2;" 
 />
    <glyph glyph-name="adieresis" unicode="&#xe4;" 
 />
    <glyph glyph-name="ccedilla" unicode="&#xe7;" 
 />
    <glyph glyph-name="egrave" unicode="&#xe8;" 
 />
    <glyph glyph-name="eacute" unicode="&#xe9;" horiz-adv-x="581" 
d="M607 934c-16 -16 -86 -139 -61 -134c23 5 185 81 185 126c0 57 -56 76 -92 50c-25 -19 -17 -27 -32 -42zM371 658c29 14 51 12 59 -4c4 -8 11 -14 15 -14c5 0 20 -11 34 -25c24 -23 42 -27 42 -7c0 5 6 15 13 21c13 12 14 12 28 -1c13 -13 13 -16 7 -47
c-6 -28 -16 -43 -58 -87c-28 -29 -61 -61 -74 -70s-31 -23 -41 -32c-10 -10 -53 -41 -97 -69c-56 -36 -83 -50 -92 -47c-18 5 -34 -8 -34 -28s45 -62 79 -73c20 -6 34 -6 59 0c65 16 150 50 162 65c9 12 17 15 40 13c38 -3 38 -19 1 -53c-15 -14 -28 -28 -28 -31
s-20 -14 -43 -25c-24 -11 -63 -29 -86 -39c-88 -40 -224 -13 -292 58c-48 49 -55 69 -55 148c0 64 2 72 23 115c52 103 143 174 262 207c31 8 65 20 76 25zM450 523c3 8 -25 8 -30 -1c-2 -3 -10 -7 -16 -7c-13 0 -87 -36 -131 -64c-36 -23 -81 -76 -73 -84c4 -4 15 1 30 11
c13 10 46 28 72 41c67 33 47 23 104 66c23 18 44 34 44 38z" />
    <glyph glyph-name="ecircumflex" unicode="&#xea;" 
 />
    <glyph glyph-name="edieresis" unicode="&#xeb;" 
 />
    <glyph glyph-name="icircumflex" unicode="&#xee;" 
 />
    <glyph glyph-name="idieresis" unicode="&#xef;" 
 />
    <glyph glyph-name="oacute" unicode="&#xf3;" horiz-adv-x="604" 
d="M607 934c-16 -16 -86 -139 -61 -134c23 5 185 81 185 126c0 57 -56 76 -92 50c-25 -19 -17 -27 -32 -42zM197 572c31 43 51 59 51 40c0 -5 6 -7 16 -4c11 3 20 1 28 -9c15 -17 22 -18 47 -5c20 10 101 26 140 26s76 -36 99 -94c33 -82 20 -165 -36 -226
c-16 -18 -31 -38 -33 -47c-3 -8 -11 -19 -19 -23s-13 -13 -11 -18c9 -23 -128 -170 -166 -180c-9 -2 -19 -9 -24 -14c-12 -14 -73 -31 -114 -31c-94 0 -165 92 -165 212c0 55 10 91 41 153c34 69 40 77 78 128c20 25 50 66 68 92zM440 543c-13 8 -28 14 -34 14
c-14 0 -22 -11 -15 -21c8 -16 -45 9 -37 -5c6 -10 -17 -18 -24 -8c-4 6 -6 6 -5 -3c1 -10 -2 -16 -15 -19c-18 -4 -40 -39 -56 -93c-5 -15 -13 -33 -18 -39c-30 -34 -58 -178 -44 -227c8 -29 30 -53 55 -59c20 -5 84 24 138 63c61 43 126 169 126 244c0 52 -38 133 -71 153z
" />
    <glyph glyph-name="ocircumflex" unicode="&#xf4;" 
 />
    <glyph glyph-name="odieresis" unicode="&#xf6;" 
 />
    <glyph glyph-name="ugrave" unicode="&#xf9;" 
 />
    <glyph glyph-name="uacute" unicode="&#xfa;" horiz-adv-x="518" 
d="M607 934c-16 -16 -86 -139 -61 -134c23 5 185 81 185 126c0 57 -56 76 -92 50c-25 -19 -17 -27 -32 -42zM210 729c0 17 14 9 14 -9c0 -14 3 -17 16 -17c30 0 41 -29 36 -91c-5 -72 -27 -97 -39 -163c-4 -26 -12 -51 -15 -56s-5 -13 -2 -17s-1 -13 -6 -19
c-6 -7 -12 -32 -13 -62c-5 -83 6 -89 118 -66l59 12l17 49c36 100 57 190 61 264c2 35 6 73 9 86c7 31 28 37 33 9c3 -10 7 -24 10 -29s3 -20 0 -30s-4 -38 -3 -59c2 -44 -7 -116 -18 -136c-4 -8 -6 -15 -4 -17s-1 -13 -7 -25c-17 -31 -37 -88 -37 -107c0 -8 -5 -17 -10 -19
c-5 -3 -11 -11 -11 -19s-8 -16 -23 -22c-13 -5 -26 -14 -29 -18c-2 -3 -11 -7 -19 -7s-28 -6 -43 -11c-15 -6 -54 -13 -85 -14c-61 -3 -114 11 -151 40c-26 20 -53 83 -57 133c-8 84 24 219 79 331c18 36 22 39 52 47c36 8 68 28 68 42z" />
    <glyph glyph-name="ucircumflex" unicode="&#xfb;" 
 />
    <glyph glyph-name="udieresis" unicode="&#xfc;" horiz-adv-x="518" 
d="M463 777c-57 0 -76 56 -50 92c32 44 216 -92 50 -92zM185 777c-57 0 -76 56 -50 92c32 44 216 -92 50 -92zM210 729c0 17 14 9 14 -9c0 -14 3 -17 16 -17c30 0 41 -29 36 -91c-5 -72 -27 -97 -39 -163c-4 -26 -12 -51 -15 -56s-5 -13 -2 -17s-1 -13 -6 -19
c-6 -7 -12 -32 -13 -62c-5 -83 6 -89 118 -66l59 12l17 49c36 100 57 190 61 264c2 35 6 73 9 86c7 31 28 37 33 9c3 -10 7 -24 10 -29s3 -20 0 -30s-4 -38 -3 -59c2 -44 -7 -116 -18 -136c-4 -8 -6 -15 -4 -17s-1 -13 -7 -25c-17 -31 -37 -88 -37 -107c0 -8 -5 -17 -10 -19
c-5 -3 -11 -11 -11 -19s-8 -16 -23 -22c-13 -5 -26 -14 -29 -18c-2 -3 -11 -7 -19 -7s-28 -6 -43 -11c-15 -6 -54 -13 -85 -14c-61 -3 -114 11 -151 40c-26 20 -53 83 -57 133c-8 84 24 219 79 331c18 36 22 39 52 47c36 8 68 28 68 42z" />
    <glyph glyph-name="eogonek" unicode="&#x119;" 
 />
    <glyph glyph-name="quoteright" unicode="&#x2019;" horiz-adv-x="101" 
d="M44 781c5 18 15 15 31 -8c17 -23 20 -77 7 -122c-13 -44 -10 -128 3 -154c11 -21 11 -23 -2 -39c-18 -21 -33 -11 -46 27c-5 15 -13 34 -18 43c-5 10 -9 47 -9 101c0 73 2 88 15 112c8 15 17 33 19 40z" />
    <glyph glyph-name="quotedblleft" unicode="&#x201c;" horiz-adv-x="417" 
d="M176 373c-3 5 -1 10 3 10c18 0 66 -94 61 -121c-27 -156 -95 -275 -157 -275c-28 0 -56 16 -56 33c0 6 -4 17 -10 24c-14 15 -6 32 28 58c13 10 31 31 39 47s18 35 23 40c15 18 73 172 69 184zM336 317c3 32 1 43 17 18c6 -10 22 -29 35 -44c22 -24 23 -28 20 -66
c-2 -21 -10 -53 -18 -71c-16 -36 -40 -111 -60 -142c-8 -11 -13 -25 -12 -29c2 -10 -38 -44 -51 -44c-12 0 -24 22 -32 55c-6 27 21 129 42 159c7 10 15 26 18 36s8 21 11 24c10 13 28 75 30 104z" />
    <glyph glyph-name="quotedblright" unicode="&#x201d;" horiz-adv-x="495" 
d="M131 778c1 7 7 5 21 -5c10 -8 24 -13 31 -11c16 5 17 -11 32 -11c14 0 43 -27 43 -39c0 -5 -5 -13 -13 -16c-12 -7 -48 -61 -87 -135c-10 -19 -24 -44 -32 -56c-8 -11 -15 -26 -18 -31c-18 -38 -47 -70 -62 -70c-26 0 -40 29 -35 68c4 33 9 46 63 158
c26 53 46 107 57 148zM346 744c2 7 10 4 28 -10c17 -13 27 -17 32 -12c10 10 58 -24 71 -49c13 -26 14 -53 1 -53c-12 0 -62 -58 -93 -108c-58 -92 -120 -120 -120 -56c0 23 21 102 34 127c16 33 20 40 33 96c6 31 13 60 14 65z" />
    <glyph glyph-name="bullet" unicode="&#x2022;" 
 />
    <glyph glyph-name="Euro" unicode="&#x20ac;" horiz-adv-x="741" 
d="M334 474c-12 0 -52 -35 -64 -35c-13 0 -84 -49 -81 -55c2 -3 36 1 76 7c73 13 212 25 334 29c77 3 81 0 41 -38c-27 -26 -53 -34 -141 -44c-56 -6 -157 -24 -199 -35c-20 -5 -45 -10 -56 -10c-10 0 -47 -6 -82 -12c-59 -12 -62 -13 -64 -31c-2 -17 2 -22 31 -36
c31 -14 44 -15 151 -15c120 0 241 13 324 36c45 13 55 10 55 -18c0 -15 -7 -25 -22 -36c-33 -23 -81 -46 -109 -51c-14 -3 -33 -8 -43 -13c-16 -8 -130 -26 -244 -36c-94 -9 -194 43 -214 111c-4 15 -11 60 -14 98c-5 57 -4 70 4 75c5 3 21 24 35 45c31 49 58 78 103 111
c52 39 136 89 167 99c15 5 32 10 35 13c12 9 97 31 250 66c23 5 46 10 51 10c9 0 43 -32 43 -42c0 -3 8 -15 18 -27c16 -19 17 -23 10 -38c-4 -10 -8 -24 -8 -31s-6 -20 -13 -29c-12 -15 -14 -15 -26 -5c-31 25 -105 45 -126 34c-6 -3 -38 -15 -71 -25
c-66 -21 -118 -45 -131 -61c-5 -6 -15 -11 -20 -11z" />
    <glyph glyph-name="backslash" unicode="\" horiz-adv-x="561" 
d="M418 86c0 -7 42 -45 42 -53c0 -3 10 -17 22 -30c18 -19 26 -22 40 -19c10 3 22 8 25 11c12 12 5 71 -14 120c-17 44 -89 161 -138 223c-23 29 -34 47 -45 72c-4 8 -21 31 -36 52c-15 20 -28 39 -28 41c0 3 -16 28 -36 57c-125 181 -144 211 -149 234c-3 19 -5 20 -45 20
h-42l5 -46c7 -65 11 -56 35 -110c10 -23 32 -61 48 -84c51 -73 123 -180 135 -201c6 -12 17 -30 24 -41c26 -41 105 -161 131 -200c15 -22 26 -43 26 -46z" />
    <glyph glyph-name="quotesingle" unicode="'" horiz-adv-x="176" 
d="M46 726c7 38 34 37 47 -6c5 -18 36 -32 37 -35c26 -108 -135 -240 -84 41z" />
    <glyph glyph-name="underscore" unicode="_" horiz-adv-x="826" 
d="M168 90c157 -56 534 -8 536 4c91 -193 -461 -34 -600 -75c-18 -5 4 -13 -19 9c-18 18 -15 7 -18 33c-3 23 25 26 31 26c44 2 37 15 70 3z" />
    <glyph glyph-name="exclamdown" unicode="&#xa1;" horiz-adv-x="370" 
d="M179 100l18 -30l10 -42c4 -17 96 24 94 30c-9 21 52 29 12 102c-50 91 -33 55 -68 113c-8 15 -20 37 -27 49c-14 25 -36 97 -50 158c0 1 1 96 1 96c0 15 -41 11 -61 6c-13 -3 -23 -16 -36 -45c-26 -56 -25 -122 1 -206c22 -71 23 -72 33 -87c3 -5 17 -34 31 -62
c13 -28 32 -65 42 -82zM39 685c-5 -15 7 -12 25 7c9 10 20 17 24 17s21 14 38 32c31 31 31 31 18 46l-13 13l-11 -15c-10 -13 -14 -14 -28 -6c-15 8 -19 7 -29 -6c-6 -8 -13 -29 -16 -47c-2 -18 -6 -36 -8 -41z" />
    <glyph glyph-name="asciicircum" unicode="^" horiz-adv-x="511" 
d="M193 647c0 5 17 19 17 23c0 7 26 43 30 43c7 0 12 -30 15 -33c1 -2 8 -20 13 -40c10 -40 15 -57 28 -81c10 -19 45 -55 59 -59c24 -7 30 29 9 54c-23 28 -37 63 -52 128c-4 17 -12 42 -17 56s-11 32 -13 41l-4 17l-20 -1c-12 0 -27 -2 -33 -4c-7 -2 -16 -5 -20 -5
c-15 0 -30 -21 -77 -110c-4 -9 -13 -25 -19 -34s-22 -39 -36 -66s-29 -53 -31 -55c-8 -8 8 -15 37 -15c32 -1 39 2 39 14c0 4 3 8 4 9c3 2 33 53 51 86c4 8 11 18 14 22c3 3 6 8 6 10z" />
    <glyph glyph-name="grave" unicode="`" horiz-adv-x="176" 
d="M30 706c-15 35 34 37 47 -6c5 -18 51 -13 53 -15c90 -103 16 -247 -100 21z" />
    <glyph glyph-name="ntilde" unicode="&#xf1;" horiz-adv-x="470" 
d="M184 740c21 5 186 -3 204 -10c25 -9 26 -32 3 -61c-18 -22 -28 -27 -64 -34c-72 -15 -171 -19 -189 -7c-21 14 -56 65 -51 74c2 4 16 8 31 8c18 0 30 5 38 13c7 8 20 16 28 17zM235 558c10 12 18 13 46 9c43 -5 46 -6 59 -37c8 -19 12 -54 12 -142c0 -114 1 -116 18 -133
c12 -12 26 -18 49 -20c18 -2 36 -5 39 -7c10 -6 1 -32 -20 -64c-18 -26 -24 -30 -57 -33c-33 -4 -39 -3 -64 15c-21 15 -29 25 -34 46c-3 15 -10 41 -15 56c-5 16 -10 35 -10 43s-3 18 -7 20c-5 3 -8 25 -8 136c0 26 -11 31 -29 14c-8 -7 -23 -15 -33 -18
c-19 -4 -34 -30 -34 -56c0 -8 -1 -27 -3 -42s-5 -59 -7 -98c-4 -81 -13 -105 -51 -148c-29 -33 -48 -35 -53 -6c-20 98 -26 148 -22 177c9 70 34 194 43 220c5 14 9 33 9 43c0 9 4 18 9 21c14 9 68 4 80 -6c16 -15 66 -8 83 10z" />
    <glyph glyph-name="iacute" unicode="&#xed;" horiz-adv-x="432" 
d="M206 792c16 16 139 86 134 61c-5 -23 -81 -185 -126 -185c-57 0 -76 56 -50 92c19 25 27 17 42 32zM94 546c23 28 21 27 39 16c10 -6 18 -6 33 1c18 8 21 8 32 -7c49 -61 63 -109 41 -134c-8 -8 -15 -27 -17 -42c-3 -31 -27 -169 -24 -203c1 -22 4 -27 19 -29
c25 -3 89 12 131 32c39 18 67 18 75 -2c4 -11 -42 -66 -56 -66c-4 0 -24 -11 -44 -24c-87 -57 -233 -48 -277 19s-46 107 -16 253c25 121 36 152 64 186z" />
    <glyph glyph-name="Iacute" unicode="&#xcd;" horiz-adv-x="545" 
d="M607 934c-16 -16 -86 -139 -61 -134c23 5 185 81 185 126c0 57 -56 76 -92 50c-25 -19 -17 -27 -32 -42zM229 732l-19 21l17 -5c21 -6 24 -6 141 -1c65 3 101 1 111 -4c25 -13 33 -12 49 -40c12 -21 12 -23 1 -36c-6 -8 -16 -13 -21 -13s-8 -8 -5 -26
c2 -20 -3 -36 -18 -67c-11 -23 -22 -53 -25 -66s-10 -38 -15 -56c-13 -41 -45 -183 -49 -219c-1 -15 -6 -33 -10 -41c-3 -8 -8 -22 -8 -32c-2 -18 -1 -17 47 -17s101 -16 101 -31c0 -10 -35 -35 -55 -39c-10 -2 -24 -7 -32 -10c-26 -11 -152 -34 -212 -38
c-33 -3 -71 -9 -86 -12c-24 -5 -34 -2 -72 18c-50 25 -55 29 -58 53c-2 17 -1 18 39 18c23 0 59 4 80 7l38 6l-2 63c-3 77 8 123 54 220c18 40 37 84 41 99c13 40 47 118 62 143c2 4 -58 36 -83 44c-15 5 -17 31 -2 37c9 3 7 6 -9 24z" />
    <glyph glyph-name="periodcentered" unicode="&#xb7;" horiz-adv-x="119" 
d="M18 443c3 0 36 17 52 1c46 -48 54 -75 22 -75c-7 0 -13 -3 -13 -7c0 -3 -6 -7 -12 -7s-17 -5 -24 -11c-10 -10 -14 -10 -23 -3c-8 6 -2 102 -2 102z" />
  </font>
</defs>
</svg>
